<?xml version="1.0" standalone="no"?>
<!DOCTYPE svg PUBLIC "-//W3C//DTD SVG 1.1//EN" "http://www.w3.org/Graphics/SVG/1.1/DTD/svg11.dtd" >
<svg xmlns="http://www.w3.org/2000/svg">
<metadata>Generated by IcoMoon</metadata>
<defs>
<font id="design_plus" horiz-adv-x="1024">
<font-face units-per-em="1024" ascent="960" descent="-64" />
<missing-glyph horiz-adv-x="1024" />
<glyph unicode="&#x20;" horiz-adv-x="512" d="" />
<glyph unicode="&#xe0b7;" glyph-name="chat" d="M768 596.667v86h-512v-86h512zM598 340.667v86h-342v-86h342zM256 554.667v-86h512v86h-512zM854 852.667c46 0 84-38 84-84v-512c0-46-38-86-84-86h-598l-170-170v768c0 46 38 84 84 84h684z" />
<glyph unicode="&#xe0c6;" glyph-name="live_help" d="M642 500.667c24 24 40 58 40 96 0 94-76 172-170 172s-170-78-170-172h84c0 46 40 86 86 86s86-40 86-86c0-24-10-44-26-60l-52-54c-30-32-50-74-50-120v-22h84c0 64 20 90 50 122zM554 170.667v86h-84v-86h84zM810 852.667c46 0 86-38 86-84v-598c0-46-40-86-86-86h-170l-128-128-128 128h-170c-48 0-86 40-86 86v598c0 46 38 84 86 84h596z" />
<glyph unicode="&#xe145;" glyph-name="add" d="M810 384.667h-256v-256h-84v256h-256v84h256v256h84v-256h256v-84z" />
<glyph unicode="&#xe147;" glyph-name="add_circle" d="M726 384.667v84h-172v172h-84v-172h-172v-84h172v-172h84v172h172zM512 852.667c236 0 426-190 426-426s-190-426-426-426-426 190-426 426 190 426 426 426z" />
<glyph unicode="&#xe149;" glyph-name="archive" d="M218 724.667h588l-40 44h-512zM512 192.667l234 234h-148v86h-172v-86h-148zM876 714.667c12-14 20-34 20-54v-532c0-46-40-86-86-86h-596c-46 0-86 40-86 86v532c0 20 8 40 20 54l58 72c12 14 30 24 50 24h512c20 0 38-10 50-24z" />
<glyph unicode="&#xe254;" glyph-name="mode_edit" d="M884 638.667l-78-78-160 160 78 78c16 16 44 16 60 0l100-100c16-16 16-44 0-60zM128 202.667l472 472 160-160-472-472h-160v160z" />
<glyph unicode="&#xe2c0;" glyph-name="cloud_download" d="M726 384.667h-128v170h-172v-170h-128l214-214zM826 510.667c110-8 198-100 198-212 0-118-96-214-214-214h-554c-142 0-256 114-256 256 0 132 100 240 228 254 54 102 160 174 284 174 156 0 284-110 314-258z" />
<glyph unicode="&#xe320;" glyph-name="laptop_mac" d="M512 128.667c24 0 42 18 42 42s-18 42-42 42-42-18-42-42 18-42 42-42zM170 724.667v-468h684v468h-684zM854 170.667h170c0-46-40-86-86-86h-852c-46 0-86 40-86 86h170c-46 0-84 40-84 86v468c0 46 38 86 84 86h684c46 0 84-40 84-86v-468c0-46-38-86-84-86z" />
<glyph unicode="&#xe56c;" glyph-name="restaurant" d="M682 682.667c0 76 96 170 214 170v-852h-106v340h-108v342zM470 554.667v298h84v-298c0-90-70-164-160-170v-384h-106v384c-90 6-160 80-160 170v298h86v-298h84v298h86v-298h86z" />
<glyph unicode="&#xe5c4;" glyph-name="apps2" d="M682 84.667v172h172v-172h-172zM682 340.667v172h172v-172h-172zM426 596.667v172h172v-172h-172zM682 768.667h172v-172h-172v172zM426 340.667v172h172v-172h-172zM170 340.667v172h172v-172h-172zM170 84.667v172h172v-172h-172zM426 84.667v172h172v-172h-172zM170 596.667v172h172v-172h-172z" />
<glyph unicode="&#xe7f4;" glyph-name="notifications" d="M768 256.667l86-86v-42h-684v42l86 86v212c0 132 70 240 192 270v30c0 36 28 64 64 64s64-28 64-64v-30c122-30 192-140 192-270v-212zM512 0.667c-48 0-86 38-86 84h172c0-46-40-84-86-84z" />
<glyph unicode="&#xe813;" glyph-name="smile" d="M512 256.667c64 0 118 34 148 84h70c-34-88-118-148-218-148s-184 60-218 148h70c30-50 84-84 148-84zM512 84.667c188 0 342 154 342 342s-154 342-342 342-342-154-342-342 154-342 342-342zM512 852.667c236 0 426-190 426-426s-190-426-426-426-426 190-426 426 190 426 426 426zM298 532.667c0 36 28 64 64 64s64-28 64-64-28-64-64-64-64 28-64 64zM598 532.667c0 36 28 64 64 64s64-28 64-64-28-64-64-64-64 28-64 64z" />
<glyph unicode="&#xe838;" glyph-name="star2" d="M512 202.667l-264-160 70 300-232 202 306 26 120 282 120-282 306-26-232-202 70-300z" />
<glyph unicode="&#xe869;" glyph-name="build" d="M968 128.667c18-12 18-42-4-60l-98-98c-18-18-42-18-60 0l-388 388c-98-38-212-18-294 64-86 86-108 214-56 316l188-184 128 128-184 184c102 46 230 30 316-56 82-82 102-196 64-294z" />
<glyph unicode="&#xe876;" glyph-name="done" d="M384 246.667l452 454 60-60-512-512-238 238 58 60z" />
<glyph unicode="&#xe87d;" glyph-name="favorite" d="M512 28.667l-62 56c-220 200-364 330-364 492 0 132 102 234 234 234 74 0 146-36 192-90 46 54 118 90 192 90 132 0 234-102 234-234 0-162-144-294-364-494z" />
<glyph unicode="&#xe88a;" glyph-name="home2" d="M426 84.667h-212v342h-128l426 384 426-384h-128v-342h-212v256h-172v-256z" />
<glyph unicode="&#xe89a;" glyph-name="loyalty" d="M736 286.667c20 20 32 46 32 76 0 58-48 106-106 106-30 0-56-10-76-30l-32-32-30 32c-20 20-46 30-76 30-58 0-106-48-106-106 0-30 10-56 30-76l182-182zM234 640.667c36 0 64 28 64 64s-28 64-64 64-64-28-64-64 28-64 64-64zM914 444.667c16-16 24-36 24-60s-8-44-24-60l-300-300c-16-16-36-24-60-24s-44 8-60 24l-384 384c-16 16-24 36-24 60v300c0 46 38 84 84 84h300c24 0 44-8 60-24z" />
<glyph unicode="&#xe8b4;" glyph-name="marker2" d="M512 448.667c58 0 106 48 106 106s-48 106-106 106-106-48-106-106 48-106 106-106zM512 852.667c166 0 298-132 298-298 0-224-298-554-298-554s-298 330-298 554c0 166 132 298 298 298z" />
<glyph unicode="&#xe8f9;" glyph-name="work" d="M598 682.667v86h-172v-86h172zM854 682.667c48 0 84-38 84-86v-468c0-48-36-86-84-86h-684c-48 0-84 38-84 86v468c0 48 36 86 84 86h172v86c0 48 36 84 84 84h172c48 0 84-36 84-84v-86h172z" />
<glyph unicode="&#xe900;" glyph-name="google-plus" d="M325.8 502.6v-111.8h184.8c-7.4-48-55.8-140.6-184.8-140.6-111.2 0-202 92.2-202 205.8s90.8 205.8 202 205.8c63.4 0 105.6-27 129.8-50.2l88.4 85.2c-56.8 53-130.4 85.2-218.2 85.2-180.2-0.2-325.8-145.8-325.8-326s145.6-325.8 325.8-325.8c188 0 312.8 132.2 312.8 318.4 0 21.4-2.4 37.8-5.2 54h-307.6zM1024 512h-96v96h-96v-96h-96v-96h96v-96h96v96h96z" />
<glyph unicode="&#xe901;" glyph-name="google-plus2" d="M928 960h-832c-52.8 0-96-43.2-96-96v-832c0-52.8 43.2-96 96-96h832c52.8 0 96 43.2 96 96v832c0 52.8-43.2 96-96 96zM384 192c-141.6 0-256 114.4-256 256s114.4 256 256 256c69.2 0 127-25.2 171.6-67l-69.6-66.8c-19 18.2-52.2 39.4-102 39.4-87.4 0-158.8-72.4-158.8-161.6s71.4-161.6 158.8-161.6c101.4 0 139.4 72.8 145.2 110.4h-145.2v87.8h241.8c2.2-12.8 4-25.6 4-42.4 0-146.4-98-250.2-245.8-250.2zM896 448h-64v-64h-64v64h-64v64h64v64h64v-64h64v-64z" />
<glyph unicode="&#xe902;" glyph-name="facebook" d="M608 768h160v192h-160c-123.514 0-224-100.486-224-224v-96h-128v-192h128v-512h192v512h160l32 192h-192v96c0 17.346 14.654 32 32 32z" />
<glyph unicode="&#xe903;" glyph-name="facebook2" d="M928 960h-832c-52.8 0-96-43.2-96-96v-832c0-52.8 43.2-96 96-96h416v448h-128v128h128v64c0 105.8 86.2 192 192 192h128v-128h-128c-35.2 0-64-28.8-64-64v-64h192l-32-128h-160v-448h288c52.8 0 96 43.2 96 96v832c0 52.8-43.2 96-96 96z" />
<glyph unicode="&#xe904;" glyph-name="twitter" d="M1024 733.6c-37.6-16.8-78.2-28-120.6-33 43.4 26 76.6 67.2 92.4 116.2-40.6-24-85.6-41.6-133.4-51-38.4 40.8-93 66.2-153.4 66.2-116 0-210-94-210-210 0-16.4 1.8-32.4 5.4-47.8-174.6 8.8-329.4 92.4-433 219.6-18-31-28.4-67.2-28.4-105.6 0-72.8 37-137.2 93.4-174.8-34.4 1-66.8 10.6-95.2 26.2 0-0.8 0-1.8 0-2.6 0-101.8 72.4-186.8 168.6-206-17.6-4.8-36.2-7.4-55.4-7.4-13.6 0-26.6 1.4-39.6 3.8 26.8-83.4 104.4-144.2 196.2-146-72-56.4-162.4-90-261-90-17 0-33.6 1-50.2 3 93.2-59.8 203.6-94.4 322.2-94.4 386.4 0 597.8 320.2 597.8 597.8 0 9.2-0.2 18.2-0.6 27.2 41 29.4 76.6 66.4 104.8 108.6z" />
<glyph unicode="&#xe905;" glyph-name="pinterest" d="M512 891.6c-245 0-443.6-198.6-443.6-443.6 0-188 117-348.4 282-413-3.8 35-7.4 89 1.6 127.2 8 34.6 52 220.4 52 220.4s-13.2 26.6-13.2 65.8c0 61.6 35.8 107.8 80.2 107.8 37.8 0 56.2-28.4 56.2-62.4 0-38-24.2-95-36.8-147.6-10.6-44.2 22-80.2 65.6-80.2 78.8 0 139.4 83.2 139.4 203.2 0 106.2-76.4 180.4-185.2 180.4-126.2 0-200.2-94.6-200.2-192.6 0-38.2 14.6-79 33-101.2 3.6-4.4 4.2-8.2 3-12.8-3.4-14-10.8-44.2-12.4-50.4-2-8.2-6.4-9.8-14.8-6-55.4 25.8-90 106.8-90 171.8 0 140 101.6 268.4 293 268.4 153.8 0 273.4-109.6 273.4-256.2 0-152.8-96.4-276-230.2-276-45 0-87.2 23.4-101.6 51 0 0-22.2-84.6-27.6-105.4-10-38.6-37-86.8-55.2-116.2 41.6-12.8 85.6-19.8 131.4-19.8 245 0 443.6 198.6 443.6 443.6 0 245.2-198.6 443.8-443.6 443.8z" />
<glyph unicode="&#xe906;" glyph-name="rss2" d="M928 960h-832c-52.8 0-96-43.2-96-96v-832c0-52.8 43.2-96 96-96h832c52.8 0 96 43.2 96 96v832c0 52.8-43.2 96-96 96zM279 128.8c-48 0-87 38.6-87 86.6 0 47.6 39 86.8 87 86.8 48.2 0 87-39.2 87-86.8 0-48-39-86.6-87-86.6zM497.4 128c0 81.8-31.8 158.8-89.4 216.4-57.8 57.8-134.4 89.6-216 89.6v125.2c237.6 0 431.2-193.4 431.2-431.2h-125.8zM719.6 128c0 291-236.6 528-527.4 528v125.2c360 0 653-293.2 653-653.2h-125.6z" />
<glyph unicode="&#xe907;" glyph-name="feedly" d="M1006.316 361.13l-451.649 451.606c-23.577 23.579-61.797 23.579-85.354 0l-451.649-451.606c-23.577-23.587-23.579-61.804 0-85.37l338.167-338.157h312.271l338.157 338.157c23.579 23.579 23.579 61.781 0.027 85.37zM254.824 266.613l-50.253 50.253c-3.487 3.493-3.487 9.18 0 12.695l298.189 298.194c3.521 3.493 9.192 3.493 12.713 0l67.107-67.156c3.487-3.493 3.487-9.18 0-12.689l-281.331-281.315h-46.406zM585.477 79.709l-50.28-50.253h-46.406l-50.253 50.253c-3.487 3.493-3.487 9.18 0 12.689l67.126 67.142c3.493 3.521 9.18 3.521 12.699 0l67.113-67.142c3.487-3.493 3.487-9.18 0-12.689zM586.195 316.113l-167.23-167.22h-46.406l-50.253 50.253c-3.487 3.487-3.487 9.18 0 12.689l184.106 184.121c3.493 3.507 9.18 3.507 12.695 0l67.113-67.142c3.487-3.493 3.487-9.18-0.014-12.695z" />
<glyph unicode="&#xe908;" glyph-name="hatebu" d="M1023.811 159.44c0-62.928-51.002-113.914-113.914-113.914s-113.914 51.002-113.914 113.914c0 62.928 51.002 113.914 113.914 113.914s113.914-51.002 113.914-113.914zM806.116 903.761h207.474v-566.68h-207.474v566.68zM490.513 522.488c0 0 143.412 9.071 143.412 180.872 0 198.949-179.558 199.969-282.027 199.969-66.469 0-100.103 0-144.227 0h-207.474v-858.251h207.474c36.807 0 82.923 0 141.185 0 283.373 0 331.576 154.93 331.576 254.388s-48.244 192.953-189.927 223.030zM218.855 741.644c79.088 0 75.564 0 96.505 0 18.077 0 96.505-7.685 96.505-82.319 0-88.184-67.815-85.174-113-85.174s-22.662 0-79.912 0v167.526zM331.854 227.515c-52.723 0-73.876 0-113.065 0v188.368c0 0 49.713 0 115.308 0s115.308-13.542 115.308-94.205-64.804-94.196-117.584-94.196z" />
<glyph unicode="&#xe909;" glyph-name="line" d="M509.804 910.384c-254.707 0-461.194-168.976-461.194-377.429 0-187.176 166.534-342.446 384.936-372.191-0.051-0.029-0.144-0.079-0.144-0.079 0.975-0.108 1.886-0.21 2.839-0.318 2.399-0.318 4.79-0.614 7.196-0.889 23.965-3.302 35.344-9.082 34.969-35.2-0.426-29.535-11.986-51.369-18.835-65.494s-21.407-71.917 44.52-35.958c50.748 27.671 300.007 149.563 412.101 331.594 29.673 45.148 48.335 95.831 53.32 149.642 0.159 1.655 0.325 3.309 0.462 4.964 0.188 2.587 0.383 5.18 0.513 7.788 0.303 5.354 0.499 10.715 0.499 16.133 0.007 208.46-206.473 377.436-461.18 377.436zM316.306 424.018h-87.833c-12.976 0-23.503 10.519-23.503 23.503v178.144c0 12.983 10.527 23.503 23.503 23.503 12.983 0 23.503-10.519 23.503-23.503v-154.635h64.331c12.99 0 23.503-10.527 23.503-23.503 0.007-12.983-10.512-23.51-23.503-23.51zM416.508 447.521c0-12.983-10.527-23.503-23.503-23.503s-23.503 10.519-23.503 23.503v178.144c0 12.983 10.527 23.503 23.503 23.503s23.503-10.519 23.503-23.503v-178.144zM631.059 430.903c-0.267-0.267-0.585-0.448-0.867-0.701-0.86-0.78-1.727-1.561-2.702-2.211-0.686-0.455-1.423-0.788-2.16-1.17-0.629-0.332-1.221-0.722-1.886-0.997-0.86-0.354-1.756-0.571-2.644-0.824-0.585-0.166-1.142-0.397-1.748-0.513-1.524-0.303-3.071-0.462-4.617-0.462h-0.007c-0.079 0-0.152 0.022-0.224 0.022-1.459 0.022-2.919 0.152-4.364 0.441-0.766 0.152-1.467 0.433-2.204 0.657-0.737 0.217-1.474 0.383-2.182 0.679-0.86 0.354-1.647 0.831-2.449 1.286-0.527 0.303-1.091 0.527-1.604 0.867-2.897 1.943-5.281 4.544-7.080 7.543l-91.222 120.519v-108.518c0-12.983-10.527-23.503-23.503-23.503s-23.503 10.519-23.503 23.503v178.144c0 0.405 0.101 0.78 0.123 1.185 0.051 1.142 0.123 2.269 0.34 3.388 0.166 0.874 0.477 1.691 0.751 2.529 0.195 0.621 0.325 1.25 0.578 1.857 0.397 0.968 0.925 1.85 1.445 2.745 0.253 0.433 0.441 0.889 0.715 1.308 1.734 2.594 3.959 4.826 6.56 6.56 0.448 0.303 0.946 0.499 1.416 0.766 0.86 0.484 1.698 0.997 2.623 1.373 0.679 0.282 1.387 0.433 2.095 0.657 0.751 0.224 1.496 0.52 2.283 0.679 1.366 0.267 2.753 0.39 4.147 0.412 0.152 0.007 0.296 0.043 0.441 0.043 0.079 0 0.159-0.022 0.246-0.022 1.467-0.014 2.919-0.152 4.364-0.433 0.708-0.144 1.366-0.412 2.052-0.607 0.78-0.231 1.575-0.419 2.334-0.73 0.795-0.325 1.524-0.78 2.269-1.192 0.592-0.325 1.207-0.592 1.777-0.968 1.293-0.86 2.493-1.835 3.584-2.933 0.007 0 0.007 0 0.007 0v0c1.351-1.358 2.471-2.926 3.461-4.573l91.236-120.533v108.489c0 12.983 10.527 23.503 23.503 23.503 12.983 0 23.503-10.519 23.503-23.503v-178.065c0.007-1.582-0.152-3.157-0.462-4.703-0.101-0.52-0.311-0.997-0.448-1.496-0.267-0.983-0.506-1.951-0.896-2.89-0.26-0.629-0.629-1.185-0.939-1.792-0.397-0.751-0.751-1.524-1.228-2.247-0.621-0.939-1.373-1.777-2.124-2.608-0.282-0.325-0.499-0.665-0.788-0.961zM785.152 560.099c12.99 0 23.51-10.534 23.51-23.503s-10.519-23.503-23.51-23.503h-64.331v-42.056h64.331c12.99 0 23.51-10.527 23.51-23.503s-10.519-23.503-23.51-23.503h-87.833c-12.976 0-23.51 10.519-23.51 23.503v178.13c0 12.983 10.534 23.503 23.51 23.503h87.833c12.99 0 23.51-10.527 23.51-23.503s-10.519-23.503-23.51-23.503h-64.331v-42.056h64.331z" />
<glyph unicode="&#xe90a;" glyph-name="pocket" d="M880.326 858.685h-742.207c-50.48 0-91.395-40.922-91.395-91.395v-251.13c0-2.016 0.094-3.873 0.217-5.643-0.137-4.378-0.217-8.836-0.217-13.417 0-255.436 207.073-462.502 462.509-462.502 252.677 0 457.885 202.651 462.293 454.28 0.13 1.698 0.21 3.49 0.21 5.505v272.899c0 50.473-40.929 91.402-91.409 91.402zM767.53 511.998l-207.059-207.044c-13.995-14.002-33.003-19.847-51.246-17.65-18.228-2.204-37.252 3.649-51.246 17.643l-207.059 207.051c-24.196 24.196-24.196 63.42 0 87.609 24.196 24.196 63.427 24.196 87.616 0l170.688-170.681 170.681 170.681c24.203 24.196 63.427 24.196 87.624 0 24.189-24.182 24.189-63.42 0-87.609z" />
<glyph unicode="&#xe90b;" glyph-name="rss" d="M159.775 224.003c-70.496 0-127.774-57.501-127.774-127.571 0-70.457 57.281-127.314 127.774-127.314 70.749 0 127.963 56.858 127.963 127.314-0.002 70.071-57.21 127.571-127.963 127.571zM32.146 601.816v-183.992c119.798 0 232.461-46.849 317.305-131.73 84.735-84.673 131.515-197.846 131.515-318.094h184.802c-0.002 349.519-284.327 633.816-633.621 633.816zM32.363 928v-184.084c427.296 0 775.085-348.126 775.085-775.917h184.553c0 529.191-430.551 960.001-959.637 960.001z" />
<glyph unicode="&#xe90c;" glyph-name="home" d="M1024 369.556l-512 397.426-512-397.428v162.038l512 397.426 512-397.428zM896 384v-384h-256v256h-256v-256h-256v384l384 288z" />
<glyph unicode="&#xe90d;" glyph-name="pencil2" d="M864 960c88.364 0 160-71.634 160-160 0-36.020-11.91-69.258-32-96l-64-64-224 224 64 64c26.742 20.090 59.978 32 96 32zM64 224l-64-288 288 64 592 592-224 224-592-592zM715.578 596.422l-448-448-55.156 55.156 448 448 55.156-55.156z" />
<glyph unicode="&#xe90e;" glyph-name="chevron-thin-down" d="M891.802 660.019c13.926 13.722 36.301 13.722 50.125 0s13.875-35.891 0-49.613l-404.89-400.896c-13.824-13.722-36.198-13.722-50.125 0l-404.89 400.896c-13.824 13.722-13.824 35.891 0 49.613 13.875 13.722 36.301 13.722 50.125 0l379.853-365.619 379.802 365.619z" />
<glyph unicode="&#xe90f;" glyph-name="chevron-thin-left" d="M711.219 80.998c13.722-13.926 13.722-36.301 0-50.125s-35.891-13.875-49.613 0l-400.896 404.89c-13.722 13.824-13.722 36.198 0 50.125l400.896 404.89c13.722 13.824 35.891 13.824 49.613 0 13.722-13.875 13.722-36.301 0-50.125l-365.619-379.853 365.619-379.802z" />
<glyph unicode="&#xe910;" glyph-name="chevron-thin-right" d="M678.4 460.8l-365.619 379.904c-13.722 13.824-13.722 36.198 0 50.125 13.722 13.824 35.891 13.824 49.613 0l400.896-404.89c13.722-13.875 13.722-36.301 0-50.125l-400.896-404.89c-13.722-13.875-35.891-13.824-49.613 0-13.722 13.773-13.722 36.198 0 50.125l365.619 379.75z" />
<glyph unicode="&#xe911;" glyph-name="chevron-thin-up" d="M132.198 261.581c-13.926-13.722-36.301-13.722-50.125 0s-13.875 35.891 0 49.613l404.89 400.896c13.824 13.722 36.198 13.722 50.125 0l404.89-400.896c13.824-13.722 13.824-35.891 0-49.613-13.875-13.722-36.301-13.722-50.074 0l-379.904 365.619-379.802-365.619z" />
<glyph unicode="&#xe912;" glyph-name="help" d="M721.408 858.47c-58.368 42.086-131.686 63.13-219.955 63.13-67.123 0-123.802-14.797-169.83-44.442-73.062-46.387-111.872-125.184-116.582-236.288h169.318c0 32.41 9.472 63.488 28.314 93.594 18.893 30.003 50.944 45.005 96.154 45.005 45.978 0 77.67-12.186 94.925-36.506 17.357-24.422 26.010-51.405 26.010-80.998 0-25.805-12.902-49.408-28.518-70.81-8.55-12.493-19.814-24.013-33.843-34.509 0 0-91.802-58.88-132.096-106.189-23.347-27.392-25.446-68.506-27.546-127.386-0.102-4.198 1.485-12.902 16.128-12.902 14.694 0 118.579 0 131.635 0 13.107 0 15.821 9.677 15.974 14.029 0.922 21.402 3.277 32.41 7.219 44.8 7.373 23.398 27.546 43.776 50.125 61.389l46.592 32.102c42.086 32.819 75.622 59.699 90.47 80.794 25.293 34.611 43.11 77.312 43.11 128-0.051 82.688-29.235 144.998-87.603 187.187zM498.739 208.691c-58.317 1.792-106.445-38.605-108.288-101.888-1.792-63.181 43.93-105.011 102.298-106.701 60.877-1.792 107.725 37.222 109.619 100.506 1.741 63.283-42.701 106.291-103.629 108.083z" />
<glyph unicode="&#xe913;" glyph-name="info" d="M636.518 972.8c68.608 0 102.912-46.694 102.912-100.198 0-66.816-59.597-128.614-137.165-128.614-64.973 0-102.861 38.4-101.069 101.888 0 53.402 45.107 126.925 135.322 126.925zM425.421-51.2c-54.17 0-93.85 33.382-55.962 180.429l62.157 260.71c10.803 41.677 12.595 58.419 0 58.419-16.23 0-86.477-28.774-128.102-57.19l-27.034 45.056c131.686 111.923 283.187 177.51 348.211 177.51 54.118 0 63.13-65.178 36.096-165.376l-71.219-274.022c-12.595-48.384-7.219-65.075 5.427-65.075 16.23 0 69.478 20.070 121.805 61.798l30.72-41.677c-128.102-130.406-268.032-180.582-322.099-180.582z" />
<glyph unicode="&#xe914;" glyph-name="location" d="M991.59 45.978l-69.99 210.022h-76.8l42.65-204.8h-750.899l42.65 204.8h-76.8l-70.042-210.022c-17.766-53.453 13.722-97.178 70.042-97.178h819.2c56.32 0 87.808 43.725 69.99 97.178zM768 716.8c0 141.363-114.586 256-256 256s-256-114.637-256-256c0-244.48 256-512 256-512s256 267.52 256 512zM373.76 713.728c0 76.339 61.85 138.189 138.24 138.189s138.24-61.85 138.24-138.189c0-76.39-61.901-138.24-138.24-138.24s-138.24 61.901-138.24 138.24z" />
<glyph unicode="&#xe915;" glyph-name="magnifying-glass" d="M898.304 180.89l-193.485 193.485c29.184 47.872 45.978 104.192 45.978 164.352 0 174.95-151.603 326.502-326.554 326.502-174.95 0.051-316.723-141.773-316.723-316.723 0-174.899 151.603-326.502 326.502-326.502 58.214 0 112.64 15.821 159.488 43.213l194.509-194.611c19.046-18.995 49.92-18.995 68.915 0l48.282 48.282c18.995 18.995 12.083 43.008-6.912 62.003zM205.005 548.506c0 121.139 98.15 219.29 219.238 219.29 121.139 0 229.069-107.878 229.069-229.069 0-121.088-98.202-219.29-219.29-219.29-121.139 0.051-229.018 107.981-229.018 229.069z" />
<glyph unicode="&#xe916;" glyph-name="message" d="M921.6 665.6v-358.4c0-56.32-46.080-102.4-102.4-102.4h-204.8v-153.6l-204.8 153.6h-204.8c-56.371 0-102.4 46.080-102.4 102.4v358.4c0 56.32 46.029 102.4 102.4 102.4h614.4c56.32 0 102.4-46.080 102.4-102.4z" />
<glyph unicode="&#xe917;" glyph-name="old-mobile" d="M696.32 819.2h-337.92v153.6h-102.4v-952.32c0-39.424 32.205-71.68 71.578-71.68h368.742c39.373 0 71.68 32.307 71.68 71.68v726.989c0 39.526-32.307 71.731-71.68 71.731zM409.6 204.8c-35.379 0-64 22.886-64 51.2s28.621 51.2 64 51.2 64-22.886 64-51.2-28.621-51.2-64-51.2zM473.6 102.4c0-28.314-28.621-51.2-64-51.2s-64 22.886-64 51.2 28.621 51.2 64 51.2 64-22.886 64-51.2zM358.4 409.6v307.2h307.2v-307.2h-307.2zM614.4 204.8c-35.379 0-64 22.886-64 51.2s28.621 51.2 64 51.2 64-22.886 64-51.2-28.621-51.2-64-51.2zM678.4 102.4c0-28.314-28.621-51.2-64-51.2s-64 22.886-64 51.2 28.621 51.2 64 51.2 64-22.886 64-51.2z" />
<glyph unicode="&#xe918;" glyph-name="old-phone" d="M883.507 345.446c-4.915 34.15-31.283 60.774-65.229 68.71-131.942 30.925-165.018 106.906-170.598 191.181-23.398 4.352-65.024 9.062-135.68 9.062s-112.282-4.71-135.68-9.062c-5.581-84.275-38.656-160.256-170.598-191.181-33.946-7.987-60.314-34.56-65.229-68.71l-25.446-176.23c-8.96-62.054 36.608-118.016 99.994-118.016h593.92c63.334 0 108.954 55.962 99.994 118.016l-25.446 176.23zM512 179.61c-71.424 0-129.331 57.344-129.331 128s57.907 128 129.331 128 129.331-57.344 129.331-128-57.958-128-129.331-128zM1021.44 665.6c-1.229 76.8-196.71 204.749-509.44 204.8-312.781-0.051-508.262-128-509.44-204.8s1.075-176.742 129.792-160.102c150.579 19.507 141.312 72.090 141.312 147.251 0 52.429 122.47 65.075 238.336 65.075s238.285-12.646 238.336-65.075c0-75.162-9.267-127.744 141.312-147.251 128.666-16.64 130.97 83.302 129.792 160.102z" />
<glyph unicode="&#xe919;" glyph-name="evernote" d="M887.757 752.282c0 58.88-88.678 65.382-88.678 65.382l-208.333 13.107c0 0-4.454 56.678-46.541 76.39-42.086 19.61-88.371 13.619-121.651 13.312-33.28-0.358-41.114-42.752-41.114-82.79 0-39.987 0.717-86.221 0.717-115.2 0-52.122-22.886-74.189-80.179-74.189h-118.118c-33.024 2.099-58.726-3.277-58.726-30.003 0-26.778 38.861-254.618 92.211-307.2 30.976-30.515 220.416-51.917 260.301-51.917s26.573 117.811 37.683 117.811c11.11 0 23.245-66.509 86.118-82.074 62.771-15.718 146.637-12.8 151.091-57.498 5.786-58.982 11.11-135.27-27.699-140.698l-87.859-3.482c-60.211 4.301-44.032 70.093-17.459 70.093s39.885 0.973 39.885 0.973l3.328 71.987c0 0-137.882 16.282-143.718-76.698-5.376-84.992 9.216-125.082 19.917-133.786 10.701-8.806 29.235-25.805 198.093-25.805 237.926 0 150.733 693.402 150.733 752.282zM790.528 444.416c-9.318-10.035-43.11 16.384-75.366 16.384-32.307 0-67.123-17.101-75.315-5.786-8.192 11.213 7.475 101.888 68.301 101.888s91.802-102.605 82.381-112.486zM297.165 759.501c0 11.725 2.97 152.781 2.97 152.781l-179.456-176.128c0 0 124.006 0 148.378 0 24.371 0.051 28.109 11.725 28.109 23.347z" />
<glyph unicode="&#xe91a;" glyph-name="close" d="M810.667 686.507l-60.16 60.16-238.507-238.507-238.507 238.507-60.16-60.16 238.507-238.507-238.507-238.507 60.16-60.16 238.507 238.507 238.507-238.507 60.16 60.16-238.507 238.507z" />
<glyph unicode="&#xe91b;" glyph-name="windows" d="M128 896v-128h-128v-810.667h896v128h128v810.667h-896zM810.667 42.667h-725.333v640h42.667v-597.333h682.667v-42.667zM938.667 170.667h-725.333v426.667h725.333v-426.667zM938.667 640h-725.333v170.667h725.333v-170.667zM597.333 768h-85.333v-85.333h85.333v85.333zM469.333 768h-85.333v-85.333h85.333v85.333zM341.333 768h-85.333v-85.333h85.333v85.333z" />
<glyph unicode="&#xe91c;" glyph-name="book" d="M379.435 898.646l-183.936-135.68-24.832 5.035v-725.333l554.667-128v725.333l-418.048 97.877 90.453 70.144 412.928-82.688v-341.333h42.667v419.584l-473.899 95.061z" />
<glyph unicode="&#xe91d;" glyph-name="download" d="M640 469.334v469.333h-213.333v-469.333h-168.661l271.488-271.531 271.488 271.531zM860.16 640h-134.827v-85.333h134.827c23.509 0 35.84-0.683 35.84-24.149v-320c0-35.328-21.931-82.517-57.173-82.517h-653.568c-35.243 0-57.173 47.189-57.173 82.517v320c0 23.467 12.331 24.149 35.84 24.149h134.827v85.333h-134.827c-70.571 0-121.173-38.912-121.173-109.483v-469.333c0-70.571 50.603-146.517 121.173-146.517h696.235c70.571 0 121.173 75.904 121.173 146.517v469.333c0 70.571-50.603 109.483-121.173 109.483zM896 61.184c0-23.509-12.331-61.184-35.84-61.184h-696.235c-23.509 0-35.84 37.675-35.84 61.184v64.555c0-13.525 33.067-40.363 57.173-40.363h653.568c24.064 0 57.173 26.837 57.173 40.363v-64.555z" />
<glyph unicode="&#xe91e;" glyph-name="users" d="M640 325.846c0 0-263.765 0-362.667-230.827 0 0 165.163-65.92 362.667-65.92s362.667 65.92 362.667 65.92c-98.901 230.827-362.667 230.827-362.667 230.827zM640 358.742c98.901 0 164.821 98.901 164.821 263.808s-164.821 164.864-164.821 164.864-164.821 0-164.821-164.864 65.92-263.808 164.821-263.808zM320 471.254c32.512 0 60.416 13.483 82.56 37.76-8.192 33.152-12.715 71.040-12.715 113.536 0 63.36 24.363 102.229 54.357 126.208-32.683 75.307-124.203 75.477-124.203 75.477s-135.765 0-135.765-135.765c0-135.765 54.315-217.216 135.765-217.216zM448 364.843l-4.608 53.675c-66.475 25.429-123.392 25.6-123.392 25.6s-217.216 0-298.667-190.080c0 0 105.003-41.856 240.853-52.053 118.315 123.861 185.813 162.859 185.813 162.859z" />
<glyph unicode="&#xe91f;" glyph-name="user2" d="M512 298.667c0 0-341.333 0-469.333-298.667 0 0 213.76-85.333 469.333-85.333s469.333 85.333 469.333 85.333c-128 298.667-469.333 298.667-469.333 298.667zM512 341.334c128 0 213.333 128 213.333 341.333s-213.333 213.333-213.333 213.333-213.333 0-213.333-213.333 85.333-341.333 213.333-341.333z" />
<glyph unicode="&#xe920;" glyph-name="phone2" d="M682.667 810.667h-341.333c-46.933 0-85.333-38.4-85.333-85.333v-597.333c0-46.933 38.4-85.333 85.333-85.333h341.333c46.933 0 85.333 38.4 85.333 85.333v597.333c0 46.933-38.4 85.333-85.333 85.333zM554.667 85.334h-85.333v85.333h85.333v-85.333zM682.667 213.334h-341.333v512h341.333v-512z" />
<glyph unicode="&#xe921;" glyph-name="phone-portrait" d="M896 554.667h-298.667v-85.333h298.667v-341.333h-298.667c0-46.933-42.667-85.333-42.667-85.333h341.333c46.933 0 85.333 38.4 85.333 85.333v341.333c0 46.933-38.4 85.333-85.333 85.333zM426.667 810.667h-341.333c-46.933 0-85.333-38.4-85.333-85.333v-597.333c0-46.933 38.4-85.333 85.333-85.333h341.333c46.933 0 85.333 38.4 85.333 85.333v597.333c0 46.933-38.4 85.333-85.333 85.333zM298.667 85.334h-85.333v85.333h85.333v-85.333zM426.667 213.334h-341.333v512h341.333v-512z" />
<glyph unicode="&#xe922;" glyph-name="phone-landscape" d="M85.333 725.334h341.333v-85.333h85.333v85.333c0 46.933-38.4 85.333-85.333 85.333h-341.333c-46.933 0-85.333-38.4-85.333-85.333v-597.333c0-46.933 32.469-85.333 79.36-85.333h48.64v170.667h-42.667v512zM896 554.667h-597.333c-46.933 0-85.333-38.4-85.333-85.333v-341.333c0-46.933 38.4-85.333 85.333-85.333h597.333c46.933 0 85.333 38.4 85.333 85.333v341.333c0 46.933-38.4 85.333-85.333 85.333zM341.333 256h-85.333v85.333h85.333v-85.333zM896 128h-512v341.333h512v-341.333z" />
<glyph unicode="&#xe923;" glyph-name="laptop" d="M128 682.667h768v-426.667h85.333v512h-938.667v-512h85.333v426.667zM682.667 213.334c-8.192-17.152-48.853-30.933-85.333-37.803v-4.864h-170.667v4.864c-36.48 6.869-77.141 20.651-85.333 37.803h-341.333v-42.667c0-46.933 128-85.333 128-85.333h768c0 0 128 38.4 128 85.333v42.667h-341.333zM853.333 128h-42.667v42.667h42.667v-42.667z" />
<glyph unicode="&#xe924;" glyph-name="important_devices" d="M510 554.667h130l-106-76 40-124-104 78-106-78 40 124-106 76h130l42 128zM854 852.667c46 0 84-36 84-84v-214h-84v214h-768v-512h554v-86h-86v-86h86v-84h-342v84h86v86h-298c-48 0-86 40-86 86v512c0 48 38 84 86 84h768zM982 84.667v300h-214v-300h214zM982 468.667c24 0 42-18 42-42v-384c0-24-18-42-42-42h-214c-24 0-42 18-42 42v384c0 24 18 42 42 42h214z" />
<glyph unicode="&#xe925;" glyph-name="cursor" d="M1024 64l-448 448 192 192-768 256 256-767.872 192 192 448-448.128z" />
<glyph unicode="&#xe926;" glyph-name="crown" horiz-adv-x="1252" d="M879.664 458.837l-263.345 361.242-263.305-361.242-338.765 361.242 75.459-802.76h1053.261l75.419 802.76z" />
<glyph unicode="&#xe927;" glyph-name="marker" d="M511.957 938.667c-214.485 0-388.395-173.909-388.395-388.437 0-214.571 305.067-635.563 388.437-635.563 61.653 0 388.48 420.992 388.48 635.563-0.043 214.528-173.952 388.437-388.523 388.437zM510.208 359.083c-109.013 0-197.333 88.32-197.333 197.333s88.32 197.333 197.333 197.333 197.333-88.32 197.333-197.333-88.32-197.333-197.333-197.333z" />
<glyph unicode="&#xe928;" glyph-name="flag2" d="M784.341 754.432c-15.957 6.613-34.304 2.944-46.507-9.259-53.931-53.888-141.696-53.931-195.669 0-87.253 87.168-229.12 87.168-316.331 0-8.021-7.979-12.501-18.859-12.501-30.165v-554.667c0-23.552 19.072-42.667 42.667-42.667s42.667 19.115 42.667 42.667v194.261c54.229 42.539 133.163 38.869 183.168-11.093 87.253-87.168 229.163-87.168 316.331 0 8.021 8.021 12.501 18.859 12.501 30.165v341.333c0 17.28-10.411 32.811-26.325 39.424z" />
<glyph unicode="&#xe929;" glyph-name="file" d="M838.231-10.476h-654.329v901.087h654.329v-901.087zM265.151 70.773h491.831v738.619h-491.831v-738.619zM362.175 667.214h297.844v-54.126h-297.844v54.126zM362.175 531.868h297.844v-54.156h-297.844v54.156zM362.175 396.553h297.844v-54.216h-297.844v54.216zM362.175 261.087h297.844v-54.096h-297.844v54.096z" />
<glyph unicode="&#xe92a;" glyph-name="demo" d="M670.344 157.863h-431.202v431.142h354.107v94.796h-448.903v-620.704h620.794v429.697h-94.796zM900.395 816.105h-365.667v-81.249h230.683l-363.319-363.409 57.468-57.407 359.556 359.616v-223.278h81.279z" />
<glyph unicode="&#xe92b;" glyph-name="view" d="M512 758.857c-213.333 0-395.52-132.693-469.333-320 73.813-187.307 256-320 469.333-320s395.52 132.693 469.333 320c-73.813 187.307-256 320-469.333 320zM512 225.524c-117.76 0-213.333 95.573-213.333 213.333s95.573 213.333 213.333 213.333 213.333-95.573 213.333-213.333-95.573-213.333-213.333-213.333zM512 566.857c-70.827 0-128-57.173-128-128s57.173-128 128-128 128 57.173 128 128-57.173 128-128 128z" />
<glyph unicode="&#xe92c;" glyph-name="avn_blog" d="M814.28 175.791c0-6.676-5.462-12.16-12.138-12.16h-465.269c-6.712 0-12.167 5.484-12.167 12.16v627.015c0 6.741 5.455 12.217 12.167 12.217h465.269c6.676 0 12.138-5.484 12.138-12.217v-627.015zM699.359 76.685c0-6.698-5.505-12.181-12.167-12.181h-465.261c-6.69 0-12.167 5.484-12.167 12.181v626.986c0 6.741 5.477 12.21 12.167 12.21h54.722v-540.098c0-33.401 26.747-60.199 60.22-60.199h362.486v-38.899zM802.142 863.055h-465.269c-33.473 0-60.22-27.376-60.22-60.249v-38.885h-54.722c-33.445 0-60.22-26.798-60.22-60.249v-626.986c0-32.91 26.776-60.206 60.22-60.206h465.261c33.473 0 60.228 27.296 60.228 60.206v38.907h54.722c33.43 0 60.199 26.798 60.199 60.199v627.015c0 32.874-26.769 60.249-60.199 60.249zM745.57 712.796h-352.739c-12.774 0-23.727-10.368-23.727-23.669 0-13.417 10.953-24.312 23.727-24.312h352.739c13.395 0 24.312 10.895 24.312 24.312 0.007 13.308-10.917 23.669-24.312 23.669zM745.57 597.912h-352.739c-12.774 0-23.727-10.325-23.727-23.756 0-13.417 10.953-24.348 23.727-24.348h352.739c13.395 0 24.312 10.931 24.312 24.348 0.007 13.431-10.917 23.756-24.312 23.756zM745.57 482.947h-352.739c-12.774 0-23.727-10.368-23.727-23.785 0-13.287 10.953-24.283 23.727-24.283h352.739c13.395 0 24.312 10.996 24.312 24.283 0.007 13.417-10.917 23.785-24.312 23.785zM745.57 367.94h-352.739c-12.774 0-23.727-10.317-23.727-23.619 0-13.41 10.953-24.377 23.727-24.377h352.739c13.395 0 24.312 10.968 24.312 24.377 0.007 13.301-10.917 23.619-24.312 23.619z" />
<glyph unicode="&#xe92d;" glyph-name="avn_art" d="M392.932 337.826c-66.318 11.546-131.394-31.046-174.571-136.849-43.784-105.839-121.041-148.394-136.242-145.96 80.898-29.818 327.827-105.817 389.276 184.267-26.169 69.931-78.464 98.542-78.464 98.542zM485.976 452.133c-19.471-21.285-24.312-37.072-49.282-77.813 15.837-12.196 48.032-38.95 69.36-85.775 44.405 25.548 64.469 29.818 88.167 49.282 151.429 130.158 346.67 518.163 333.918 531.536-13.424 14.595-308.37-267.6-442.163-417.23z" />
<glyph unicode="&#xe92e;" glyph-name="avn_concept" d="M471.627 591.64c-4.277 6.12-12.875 8.583-18.893 4.862l-95.493-54.686c-6.683-3.634-9.118-12.167-4.927-18.814 2.507-4.292 6.763-6.741 11.683-6.741 2.348 0 4.783 0.6 7.211 1.864l94.9 54.722c6.698 3.591 9.111 12.152 5.52 18.792zM562.25 572.848l94.814-54.722c2.442-1.264 4.855-1.864 7.37-1.864 4.855 0 9.104 2.449 11.444 6.741 4.349 6.654 1.85 15.187-4.841 18.814l-95.406 54.679c-6.177 3.728-14.631 1.257-18.893-4.862-3.67-6.633-1.17-15.194 5.513-18.785zM357.24 221.294l95.493-54.144c1.835-1.199 4.263-1.835 6.683-1.835 4.848 0 9.111 2.5 12.21 6.734 3.591 6.683 1.178 14.558-5.52 18.236l-94.9 54.766c-6.611 3.613-15.209 1.156-18.893-4.906-3.511-6.698-1.756-14.587 4.927-18.85zM732.493 54.020v202.56l177.605 101.547v-203.138l-177.605-100.969zM118.194 358.121l177.598-101.54v-202.553l-177.598 100.962v203.131zM309.252 483.41l177.583-101.54-177.583-101.547-177.013 101.555 177.013 101.533zM514.11 834.343l177.591-101.591-177.591-101.562-177.605 101.569 177.605 101.584zM528.148 358.121l177.013-101.547v-202.553l-177.013 100.962v203.138zM500.137 154.983l-176.926-100.962v202.56l176.926 101.547v-203.145zM705.161 506.53l-177.013-101.547v203.102l177.013 101.591v-203.145zM323.211 709.675l176.926-101.591v-203.102l-176.926 101.547v203.145zM896.125 381.87l-177.013-101.555-177.504 101.555 177.504 101.54 177.013-101.54zM937.502 381.87l-0.578 3.049v0.578l-0.665 1.257-0.592 1.77-1.272 1.243v0.592l-0.578 0.665-0.578 0.578-1.257 0.592-1.243 1.207-198.247 113.129v229.957h-0.578v1.156l-0.665 0.6-0.578 1.243-0.592 1.835h-0.592l-0.578 1.156-1.272 1.243h-0.65l-1.185 0.621-204.937 117.377c-4.256 2.42-9.104 2.42-13.373 0l-208.037-119.249-0.585-1.156h-0.578l-0.679-1.835-0.578-1.243-0.665-0.6v-1.156h-0.578v-229.957l-198.254-113.122-1.156-1.207-1.257-0.592-0.578-0.578-0.694-0.665v-0.592l-1.156-1.243-0.6-1.77-0.578-1.257v-0.578l-0.592-3.049v-234.105c0-4.906 2.348-9.176 6.611-11.589l204.937-117.45 1.835-0.585 1.243-0.578h0.6l1.264-0.592h4.176l1.243 0.592 1.864 0.578 1.748 0.585 197.662 113.172 197.654-113.172 1.907-0.585 1.763-0.578 1.272-0.592h4.248l1.17 0.592h0.665l1.272 0.578 1.748 0.585 204.937 117.45c4.263 2.413 6.763 6.683 6.763 11.589v234.105h-0.007zM675.878 240.144c-3.598 6.062-12.109 8.518-18.814 4.906l-94.814-54.766c-6.69-3.685-9.183-11.56-5.52-18.236 2.991-4.234 7.283-6.734 12.138-6.734 2.413 0 4.927 0.636 6.763 1.835l95.406 54.144c6.69 4.263 8.526 12.152 4.841 18.85zM266.61 240.144c-3.605 6.698-12.124 8.518-18.814 4.906l-95.493-54.766c-6.018-3.685-8.518-11.56-4.848-18.236 2.435-4.234 7.196-6.734 12.124-6.734 2.529 0 4.862 0.636 6.777 1.835l95.392 54.722c6.698 3.685 8.533 11.574 4.862 18.272zM876.061 190.284l-94.915 54.766c-6.604 3.613-15.209 1.156-18.893-4.906-4.162-6.698-1.748-15.173 4.855-18.85l94.98-54.144c1.748-1.199 4.263-1.835 6.618-1.835 4.826 0 9.176 2.5 12.196 6.734 3.598 6.676 1.257 14.551-4.841 18.236z" />
<glyph unicode="&#xe92f;" glyph-name="folder" d="M448 832l128-128h448v-704h-1024v832z" />
<glyph unicode="&#xe930;" glyph-name="avn_date" d="M510.598 165.452c-150.836 0-273.076 122.24-273.076 273.076 0 150.894 122.24 273.084 273.076 273.084s273.084-122.189 273.084-273.084c0.007-150.836-122.24-273.076-273.084-273.076zM510.598 803.47c-201.318 0-364.87-163.596-364.87-364.942 0-201.332 163.552-364.884 364.87-364.884 201.346 0 364.892 163.552 364.892 364.884 0.007 201.346-163.545 364.942-364.892 364.942zM650.503 614.948l-140.483-139.912-91.801 91.801-36.522-35.865 128.323-128.901 177.020 177.005z" />
<glyph unicode="&#xe931;" glyph-name="avn_home" d="M830.876 522.483l-310.747 284.745c-10.036 9.327-25.649 9.082-35.518-0.448l-293.386-284.831c-5.043-4.848-7.839-11.574-7.839-18.547v-416.529c0-14.327 11.639-25.916 25.829-25.916h604.148c14.306 0 25.894 11.589 25.894 25.916v416.529c0 7.239-3.035 14.147-8.381 19.081zM579.185 135.085h-135.664v186.326h135.664v-186.326zM765.143 135.085h-111.829v234.516c0 14.327-11.589 25.916-25.909 25.916h-232.176c-14.313 0-25.894-11.589-25.894-25.916v-234.516h-111.894v347.443l245.78 237.753 261.928-238.216v-346.981z" />
<glyph unicode="&#xe932;" glyph-name="avn_live" d="M510.013 350.665c-23.727-24.312-62.54-24.312-86.96 0-24.319 24.319-24.319 63.255 0 86.975 24.421 24.334 63.233 24.334 86.96 0 24.428-23.72 24.428-62.655 0-86.975zM381.762 154.224c-5.505-6.083-12.788-8.526-20.057-8.526-7.377 0-14.645 2.442-20.071 8.526l-114.964 114.964c-11.546 10.939-11.546 28.575 0 40.142 10.866 10.924 28.589 10.924 40.135 0l114.964-114.95c10.946-11.567 10.946-29.203-0.007-40.157zM940.038 794.663l-72.987 72.944c-5.534 5.505-12.795 7.904-20.743 7.319-7.76-1.228-14.551-5.469-18.727-12.181l-17.723-28.553-5.448 5.455c-5.52 5.462-14.616 5.462-20.064 0-5.52-6.091-5.52-14.595 0-20.071l9.71-10.346-3.020-5.44-1.243 1.207c-5.448 5.462-14.631 5.462-20.078 0-5.433-6.091-5.433-14.602 0-20.064l5.448-6.105-2.919-5.455-6.69 6.69c-6.192 5.455-14.631 5.455-20.165 0-6.098-5.477-6.098-14.595 0-20.086l9.118-9.118-211.613-211.071c-54.108 28.618-119.148 23.142-161.125-18.221-12.788-13.359-22.585-28.568-28.604-44.983-14.038-37.715-48.66-63.255-88.795-64.469-42.635-1.864-83.355-18.258-114.386-49.26-71.152-70.574-64.454-192.214 14.645-270.649 78.42-79.063 199.995-85.754 270.562-14.595 31.024 30.988 47.49 71.737 49.34 114.328 1.178 40.135 26.74 75.4 64.454 88.774 16.386 6.105 31.609 15.23 44.99 28.611 41.392 41.963 46.905 107.031 18.229 161.175l211.107 211.635 9.031-9.104c3.107-3.085 6.784-4.292 10.455-4.292 3.511 0 6.618 1.207 9.609 4.292 5.599 5.448 5.599 13.988 0 20.035l-6.676 6.705 5.505 3.027 6.112-5.477c2.413-2.413 6.112-4.256 9.71-4.256 3.67 0 7.355 1.842 10.361 4.256 5.433 5.477 5.433 14.602 0 20.071l-1.243 1.235 5.419 3.035 10.375-9.747c2.514-2.442 6.098-4.27 9.696-4.27 3.685 0 7.37 1.828 10.375 4.27 5.534 5.477 5.534 14.609 0 20.071l-5.433 5.448 28.604 17.643c6.661 4.292 10.953 10.982 12.109 18.857 0.679 7.955-1.763 15.23-7.283 20.729z" />
<glyph unicode="&#xe933;" glyph-name="avn_pin" d="M511.35 492.672c-57.786 0-105.218 47.374-105.218 105.832 0 58.291 47.432 105.854 105.218 105.854 57.778 0 105.218-47.562 105.218-105.854 0-58.458-47.447-105.832-105.218-105.832zM774.051 572.378c0 160.496-117.377 290.676-262.701 290.676-145.374 0-262.766-130.187-262.766-290.676 0-9.161 0-18.279 1.221-26.855h-1.221c0-159.853 262.766-529.044 262.766-529.044s262.701 370.354 262.701 529.044h-1.214c1.214 8.569 1.214 17.694 1.214 26.855z" />
<glyph unicode="&#xe934;" glyph-name="avn_seminar" d="M682.272 386.848c0-79.027-73.001-158.719-145.996-158.719h-48.66c-72.9 0-145.895 79.692-145.895 158.719v158.748h-48.66v-158.748c0-105.803 97.241-211.642 194.562-211.642v-105.81h-145.909v-52.901h340.551v52.901h-145.988v105.81c97.342 0 194.584 105.839 194.584 211.642v158.748h-48.588v-158.748zM536.276 281.045c53.508 0 97.342 48.054 97.342 105.218v371.596c0 57.771-43.234 105.211-97.342 105.211h-48.66c-53.422 0-97.321-47.432-97.321-105.211v-371.596c0-57.786 43.899-105.218 97.321-105.218h48.66z" />
<glyph unicode="&#xe935;" glyph-name="tag2" d="M976 960h-384c-26.4 0-63.274-15.274-81.942-33.942l-476.116-476.116c-18.668-18.668-18.668-49.214 0-67.882l412.118-412.118c18.668-18.668 49.214-18.668 67.882 0l476.118 476.118c18.666 18.666 33.94 55.54 33.94 81.94v384c0 26.4-21.6 48-48 48zM736 576c-53.020 0-96 42.98-96 96s42.98 96 96 96 96-42.98 96-96-42.98-96-96-96z" />
<glyph unicode="&#xe936;" glyph-name="avn_special" d="M882.751 516.363c0 166.023-165.416 300.437-369.176 300.437-203.731 0-369.154-134.414-369.154-300.437 0-165.445 165.424-300.437 369.154-300.437 7.312 0 14.602 0.578 21.921 0.578h1.214c9.118 0 17.636-4.256 22.463-12.174 5.505-7.897 6.098-17.629 1.85-26.754-14.595-30.403-34.051-58.978-58.999-85.154 63.876 17.044 145.981 58.392 190.386 154.485 2.428 5.462 7.268 10.339 12.759 12.781 111.316 55.336 177.583 151.422 177.583 256.676zM936.895 516.363c0-122.269-76.014-236.612-199.504-301.073-91.216-184.888-299.224-190.364-323.521-190.364h-3.078c-11.538 0.6-21.892 8.526-24.912 20.078-3.634 11.531 1.228 23.676 10.939 30.388 38.936 25.548 69.96 54.744 92.451 86.967-221.996 10.339-398.979 165.431-398.979 353.996 0 195.819 189.765 355.16 423.291 355.16 233.556 0.007 423.313-159.34 423.313-355.152zM709.416 451.237h-391.66c-15.209 0-26.761-12.752-26.761-27.339 0-15.201 11.553-27.39 26.761-27.39h391.66c15.209 0 27.361 12.196 27.361 27.39 0.007 14.587-12.145 27.339-27.361 27.339zM736.784 586.879c0-15.209-12.152-27.368-27.361-27.368h-391.668c-15.209 0-26.761 12.16-26.761 27.368 0 14.609 11.553 26.754 26.761 26.754h391.66c15.216 0.007 27.368-12.138 27.368-26.754z" />
<glyph unicode="&#xe937;" glyph-name="avn_quill" d="M0-64c128 384 463 1024 1024 1024-263-211-384-704-576-704s-192 0-192 0l-192-320h-64z" />
<glyph unicode="&#xe938;" glyph-name="avn_headphones" d="M288 384h-64v-448h64c17.6 0 32 14.4 32 32v384c0 17.6-14.4 32-32 32zM736 384c-17.602 0-32-14.4-32-32v-384c0-17.6 14.398-32 32-32h64v448h-64zM1024 448c0 282.77-229.23 512-512 512s-512-229.23-512-512c0-61.412 10.83-120.29 30.656-174.848-19.478-33.206-30.656-71.87-30.656-113.152 0-112.846 83.448-206.188 192-221.716v443.418c-31.914-4.566-61.664-15.842-87.754-32.378-5.392 26.718-8.246 54.364-8.246 82.676 0 229.75 186.25 416 416 416s416-186.25 416-416c0-28.314-2.83-55.968-8.22-82.696-26.1 16.546-55.854 27.848-87.78 32.418v-443.44c108.548 15.532 192 108.874 192 221.714 0 41.274-11.178 79.934-30.648 113.138 19.828 54.566 30.648 113.452 30.648 174.866z" />
<glyph unicode="&#xe939;" glyph-name="play_circle_filled" d="M426 234.667l256 192-256 192v-384zM512 852.667c236 0 426-190 426-426s-190-426-426-426-426 190-426 426 190 426 426 426z" />
<glyph unicode="&#xe93a;" glyph-name="shopping_cart" d="M726 170.667c46 0 84-40 84-86s-38-84-84-84-86 38-86 84 40 86 86 86zM42 852.667h140l40-84h632c24 0 42-20 42-44 0-8-2-14-6-20l-152-276c-14-26-42-44-74-44h-318l-38-70-2-6c0-6 4-10 10-10h494v-86h-512c-46 0-84 40-84 86 0 14 4 28 10 40l58 106-154 324h-86v84zM298 170.667c46 0 86-40 86-86s-40-84-86-84-84 38-84 84 38 86 84 86z" />
<glyph unicode="&#xe93b;" glyph-name="play" d="M512 960c-282.77 0-512-229.23-512-512s229.23-512 512-512 512 229.23 512 512-229.23 512-512 512zM512 32c-229.75 0-416 186.25-416 416s186.25 416 416 416 416-186.25 416-416-186.25-416-416-416zM384 672l384-224-384-224z" />
<glyph unicode="&#xe93c;" glyph-name="zm_att" d="M554.667 234.667h-85.333v85.333h85.333v-85.333zM554.667 405.333h-85.333v256h85.333v-256zM512 789.333c187.733 0 341.333-153.6 341.333-341.333s-153.6-341.333-341.333-341.333-341.333 153.6-341.333 341.333 153.6 341.333 341.333 341.333zM512 874.667c-234.667 0-426.667-192-426.667-426.667s192-426.667 426.667-426.667 426.667 192 426.667 426.667c0 234.667-192 426.667-426.667 426.667v0z" />
<glyph unicode="&#xe93d;" glyph-name="zm_eye" d="M512 160c-136.48 0-265.632 57.824-363.744 162.816-12.064 12.896-11.36 33.152 1.536 45.216 12.928 12.064 33.152 11.36 45.248-1.536 85.856-91.904 198.4-142.496 316.96-142.496 152.416 0 292.768 83.36 378.88 224-86.080 140.64-226.464 224-378.88 224-158.016 0-303.104-89.632-388.16-239.776-8.704-15.392-28.288-20.832-43.616-12.064-15.392 8.704-20.768 28.224-12.064 43.616 96.544 170.464 262.496 272.224 443.84 272.224 181.376 0 347.296-101.76 443.84-272.224 5.536-9.792 5.536-21.76 0-31.52-96.544-170.464-262.464-272.256-443.84-272.256zM512 288c-88.224 0-160 71.776-160 160s71.776 160 160 160 160-71.776 160-160-71.776-160-160-160zM512 544c-52.928 0-96-43.072-96-96s43.072-96 96-96 96 43.072 96 96-43.072 96-96 96z" />
<glyph unicode="&#xe93e;" glyph-name="zm_camera" d="M860.8 666h-135l-80.8 81.6c0 0-0.4 0.4-0.6 0.4l-0.4 0.4c-12 12-28.2 19.6-46.6 19.6h-168c-19.6 0-37-8.4-49.2-21.8v-0.2l-79-80h-138c-37.2 0-67.2-29.2-67.2-66.4v-404.2c0-37.2 30-67.4 67.2-67.4h697.6c37 0 67.2 30.2 67.2 67.4v404.2c0 37.2-30.2 66.4-67.2 66.4zM512 229c-101.8 0-184.8 83.2-184.8 185.2 0 102.2 83 185.2 184.8 185.2 102 0 184.8-83 184.8-185.2 0-102-82.8-185.2-184.8-185.2zM848.2 559c-15.4 0-28 12.6-28 28.2s12.6 28.2 28 28.2c15.4 0 28-12.6 28-28.2s-12.6-28.2-28-28.2zM512 554.2c-77.2 0-139.6-62.6-139.6-140 0-77.2 62.4-140 139.6-140 77 0 139.6 62.6 139.6 140s-62.6 140-139.6 140z" />
<glyph unicode="&#xe93f;" glyph-name="zm_like" d="M699.733 704c85.333 0 153.6-68.267 153.6-153.6s-166.4-273.067-341.333-418.133c-174.933 149.333-341.333 337.067-341.333 418.133 0 85.333 68.267 153.6 153.6 153.6 102.4 0 187.733-128 187.733-128s81.067 128 187.733 128zM699.733 789.333c-76.8 0-145.067-38.4-187.733-98.133-42.667 59.733-110.933 98.133-187.733 98.133-132.267 0-238.933-106.667-238.933-238.933 0-187.733 426.667-529.067 426.667-529.067s426.667 341.333 426.667 529.067c0 132.267-106.667 238.933-238.933 238.933v0z" />
<glyph unicode="&#xe940;" glyph-name="zm_crown" d="M963.794 625.439c0 38.162-30.937 69.078-69.1 69.078-38.119 0-69.086-30.916-69.086-69.078 0-18.648 7.42-35.518 19.428-47.96-46.991-97.299-136.791-131.249-206.397-100.485-62.005 27.39-84.85 105.76-92.617 166.479 25.266 13.323 42.512 39.788 42.512 70.321 0 43.906-35.561 79.461-79.439 79.461-43.899 0-79.461-35.547-79.461-79.461 0-30.533 17.232-57.005 42.519-70.321-7.738-60.726-30.634-139.096-92.603-166.479-69.613-30.764-159.391 3.186-206.404 100.485 11.994 12.441 19.421 29.312 19.421 47.96 0 38.162-30.945 69.078-69.093 69.078-38.162 0-69.078-30.916-69.078-69.078 0-35.106 26.169-63.999 60.054-68.435l127.926-461.519h533.437l127.926 461.519c33.856 4.429 60.054 33.322 60.054 68.435z" />
<glyph unicode="&#xe941;" glyph-name="zm_comment" d="M101.020 764.853v-484.531c0-32.332 26.436-58.754 58.754-58.754h338.607l205.66-169.549v169.549h160.872c32.332 0 58.775 26.422 58.775 58.754v484.531c0 32.325-26.444 58.761-58.775 58.761h-705.132c-32.317 0-58.761-26.436-58.761-58.761zM159.781 764.853h705.132v-484.531h-219.626v-103.079l-117.515 103.079h-367.991v484.531z" />
<glyph unicode="&#xe942;" glyph-name="sphere" d="M480 896c-265.096 0-480-214.904-480-480 0-265.098 214.904-480 480-480 265.098 0 480 214.902 480 480 0 265.096-214.902 480-480 480zM751.59 256c8.58 40.454 13.996 83.392 15.758 128h127.446c-3.336-44.196-13.624-87.114-30.68-128h-112.524zM208.41 576c-8.58-40.454-13.996-83.392-15.758-128h-127.444c3.336 44.194 13.622 87.114 30.678 128h112.524zM686.036 576c9.614-40.962 15.398-83.854 17.28-128h-191.316v128h174.036zM512 640v187.338c14.59-4.246 29.044-11.37 43.228-21.37 26.582-18.74 52.012-47.608 73.54-83.486 14.882-24.802 27.752-52.416 38.496-82.484h-155.264zM331.232 722.484c21.528 35.878 46.956 64.748 73.54 83.486 14.182 10 28.638 17.124 43.228 21.37v-187.34h-155.264c10.746 30.066 23.616 57.68 38.496 82.484zM448 576v-128h-191.314c1.88 44.146 7.666 87.038 17.278 128h174.036zM95.888 256c-17.056 40.886-27.342 83.804-30.678 128h127.444c1.762-44.608 7.178-87.546 15.758-128h-112.524zM256.686 384h191.314v-128h-174.036c-9.612 40.96-15.398 83.854-17.278 128zM448 192v-187.34c-14.588 4.246-29.044 11.372-43.228 21.37-26.584 18.74-52.014 47.61-73.54 83.486-14.882 24.804-27.75 52.418-38.498 82.484h155.266zM628.768 109.516c-21.528-35.876-46.958-64.746-73.54-83.486-14.184-9.998-28.638-17.124-43.228-21.37v187.34h155.266c-10.746-30.066-23.616-57.68-38.498-82.484zM512 256v128h191.314c-1.88-44.146-7.666-87.040-17.28-128h-174.034zM767.348 448c-1.762 44.608-7.178 87.546-15.758 128h112.524c17.056-40.886 27.344-83.806 30.68-128h-127.446zM830.658 640h-95.9c-18.638 58.762-44.376 110.294-75.316 151.428 42.536-20.34 81.058-47.616 114.714-81.272 21.48-21.478 40.362-44.938 56.502-70.156zM185.844 710.156c33.658 33.658 72.18 60.932 114.714 81.272-30.942-41.134-56.676-92.666-75.316-151.428h-95.898c16.138 25.218 35.022 48.678 56.5 70.156zM129.344 192h95.898c18.64-58.762 44.376-110.294 75.318-151.43-42.536 20.34-81.058 47.616-114.714 81.274-21.48 21.478-40.364 44.938-56.502 70.156zM774.156 121.844c-33.656-33.658-72.18-60.934-114.714-81.274 30.942 41.134 56.678 92.668 75.316 151.43h95.9c-16.14-25.218-35.022-48.678-56.502-70.156z" />
<glyph unicode="&#xe943;" glyph-name="grid" d="M192 488h280v280h-280v-280zM552 768v-280h280v280h-280zM552 128h280v280h-280v-280zM192 128h280v280h-280v-280z" />
<glyph unicode="&#xe944;" glyph-name="folder-open-o" horiz-adv-x="1091" d="M1017.714 418.857c0 16-17.714 20-30.286 20h-621.714c-30.286 0-70.286-18.857-89.714-42.286l-168-207.429c-5.143-6.857-10.286-14.286-10.286-22.857 0-16 17.714-20 30.286-20h621.714c30.286 0 70.286 18.857 89.714 42.857l168 207.429c5.143 6.286 10.286 13.714 10.286 22.286zM365.714 512h438.857v91.429c0 30.286-24.571 54.857-54.857 54.857h-329.143c-30.286 0-54.857 24.571-54.857 54.857v36.571c0 30.286-24.571 54.857-54.857 54.857h-182.857c-30.286 0-54.857-24.571-54.857-54.857v-487.429l146.286 180c33.143 40.571 94.286 69.714 146.286 69.714zM1090.857 418.857c0-25.143-10.857-49.143-26.286-68.571l-168.571-207.429c-32.571-40-94.857-69.714-146.286-69.714h-621.714c-70.286 0-128 57.714-128 128v548.571c0 70.286 57.714 128 128 128h182.857c70.286 0 128-57.714 128-128v-18.286h310.857c70.286 0 128-57.714 128-128v-91.429h109.714c38.857 0 77.714-17.714 94.857-54.286 5.714-12 8.571-25.143 8.571-38.857z" />
<glyph unicode="&#xe945;" glyph-name="video-camera" d="M982.232 765.979l-227.705-146.863v44.463c0 59.284-48.505 107.789-107.789 107.789h-538.947c-59.284 0-107.789-48.505-107.789-107.789v-431.158c0-59.284 48.505-107.789 107.789-107.789h538.947c59.284 0 107.789 48.505 107.789 107.789v44.463l227.705-146.863c25.6-13.474 41.768 9.432 41.768 22.905v591.495c0 13.474-14.821 37.726-41.768 21.558zM700.632 232.421c0-29.642-24.253-53.895-53.895-53.895h-538.947c-29.642 0-53.895 24.253-53.895 53.895v431.158c0 29.642 24.253 53.895 53.895 53.895h538.947c29.642 0 53.895-24.253 53.895-53.895v-431.158zM970.105 201.432l-215.579 138.779v215.579l215.579 138.779v-493.137z" />
<glyph unicode="&#xe946;" glyph-name="folder-images" d="M942.336 829.491c-5.734 22.528-33.587 40.909-61.952 40.909h-736.768c-28.416 0-56.269-18.381-61.952-40.909l-10.291-61.491h881.203l-10.24 61.491zM993.894 716.8h-963.84c-17.51 0-31.181-15.053-29.542-32.512l47.258-597.453c1.946-20.173 18.944-35.635 39.219-35.635h849.971c20.326 0 37.274 15.462 39.219 35.635l47.258 597.453c1.69 17.459-12.032 32.512-29.542 32.512zM636.826 544c26.522 0 48.026-21.504 48.026-48.026s-21.504-48.026-48.026-48.026-48.026 21.555-48.026 48.077c0 26.47 21.504 47.974 48.026 47.974zM281.6 256l127.283 292.557 144.742-234.291 124.109 61.645 64.666-119.91h-460.8z" />
<glyph unicode="&#xe947;" glyph-name="image" d="M972.8 870.4h-921.6c-28.314 0-51.2-22.886-51.2-51.2v-716.8c0-28.262 22.886-51.2 51.2-51.2h921.6c28.314 0 51.2 22.938 51.2 51.2v716.8c0 28.262-22.886 51.2-51.2 51.2zM921.6 153.6h-819.2v614.4h819.2v-614.4zM732.928 415.898l-165.427-82.176-193.024 312.371-169.677-390.093h614.4l-86.272 159.898zM678.4 512c35.328 0 64 28.672 64 64s-28.672 64-64 64-64-28.672-64-64 28.672-64 64-64z" />
<glyph unicode="&#xe948;" glyph-name="images" d="M876.8 656.896l-104.755 288.512c-7.731 21.299-30.464 32.614-50.637 25.19l-696.218-254.106c-20.173-7.373-30.362-30.566-22.579-51.866l110.387-304.179v162.97c0 73.626 58.778 133.478 131.072 133.478h183.962l219.392 154.010 126.925-154.010h102.451zM984.986 563.2h-740.915c-21.504 0-39.014-17.101-39.014-39.782v-482.304c0.051-22.733 17.562-41.114 39.014-41.114h740.915c21.504 0 39.014 18.381 39.014 41.114v482.304c0 22.682-17.51 39.782-39.014 39.782zM921.6 102.4h-614.4v102.4l101.581 205.722 141.722-175.923 133.018 136.294 170.906 61.696 67.174-176.589v-153.6z" />
<glyph unicode="&#xe949;" glyph-name="eye-plus" d="M1024 832h-128v128h-128v-128h-128v-128h128v-128h128v128h128zM863.862 513.972c18.436-20.478 35.192-42.53 50.022-65.972-38.292-60.522-89.274-111.922-149.436-150.296-75.594-48.218-162.89-73.704-252.448-73.704-89.56 0-176.86 25.486-252.454 73.704-60.156 38.372-111.136 89.772-149.43 150.296 38.292 60.524 89.274 111.924 149.434 150.296 3.918 2.5 7.876 4.922 11.862 7.3-9.962-27.328-15.412-56.822-15.412-87.596 0-141.382 114.616-256 256-256 141.38 0 256 114.618 256 256 0 0.692-0.018 1.38-0.024 2.072-109.284 28.138-190.298 126.63-191.932 244.31-21.026 2.38-42.394 3.618-64.044 3.618-223.318 0-416.882-130.042-512-320 95.118-189.958 288.682-320 512-320 223.31 0 416.876 130.042 512 320-17.64 35.23-38.676 68.394-62.65 99.054-29.28-17.178-62.272-28.71-97.488-33.082zM416 640c53.020 0 96-42.982 96-96 0-53.020-42.98-96-96-96s-96 42.98-96 96 42.98 96 96 96z" />
<glyph unicode="&#xe94a;" glyph-name="ego_user" horiz-adv-x="724" d="M553.281 630.344c0-105.626-85.627-191.252-191.252-191.252s-191.252 85.627-191.252 191.252c0 105.626 85.627 191.252 191.252 191.252s191.252-85.627 191.252-191.252zM362.028 382.259c-191.447 0-346.65-155.199-346.65-346.65h693.295c0 191.447-155.196 346.65-346.65 346.65z" />
<glyph unicode="&#xe94e;" glyph-name="clock" d="M658.744 210.744l-210.744 210.746v282.51h128v-229.49l173.256-173.254zM512 960c-282.77 0-512-229.23-512-512s229.23-512 512-512 512 229.23 512 512-229.23 512-512 512zM512 64c-212.078 0-384 171.922-384 384s171.922 384 384 384c212.078 0 384-171.922 384-384s-171.922-384-384-384z" />
<glyph unicode="&#xe953;" glyph-name="calendar" d="M320 576h128v-128h-128zM512 576h128v-128h-128zM704 576h128v-128h-128zM128 192h128v-128h-128zM320 192h128v-128h-128zM512 192h128v-128h-128zM320 384h128v-128h-128zM512 384h128v-128h-128zM704 384h128v-128h-128zM128 384h128v-128h-128zM832 960v-64h-128v64h-448v-64h-128v64h-128v-1024h960v1024h-128zM896 0h-832v704h832v-704z" />
<glyph unicode="&#xe971;" glyph-name="user" d="M576 253.388v52.78c70.498 39.728 128 138.772 128 237.832 0 159.058 0 288-192 288s-192-128.942-192-288c0-99.060 57.502-198.104 128-237.832v-52.78c-217.102-17.748-384-124.42-384-253.388h896c0 128.968-166.898 235.64-384 253.388z" />
<glyph unicode="&#xe9a4;" glyph-name="avn_leaf" d="M1011.328 825.504c-110.752 83.928-281.184 134.034-455.91 134.034-216.12 0-392.226-75.456-483.16-207.020-42.708-61.79-66.33-134.958-70.208-217.474-3.454-73.474 8.884-154.726 36.684-242.146 94.874 284.384 359.82 507.102 665.266 507.102 0 0-285.826-75.232-465.524-308.192-0.112-0.138-2.494-3.090-6.614-8.698-36.080-48.278-67.538-103.162-91.078-165.328-39.87-94.83-76.784-224.948-76.784-381.782h128c0 0-19.43 122.222 14.36 262.79 55.89-7.556 105.858-11.306 150.852-11.306 117.678 0 201.37 25.46 263.388 80.124 55.568 48.978 86.198 114.786 118.624 184.456 49.524 106.408 105.654 227.010 268.654 320.152 9.33 5.332 15.362 14.992 16.056 25.716s-4.040 21.080-12.606 27.572z" />
<glyph unicode="&#xe9cb;" glyph-name="link" d="M440.236 324.234c-13.31 0-26.616 5.076-36.77 15.23-95.134 95.136-95.134 249.934 0 345.070l192 192c46.088 46.086 107.36 71.466 172.534 71.466s126.448-25.38 172.536-71.464c95.132-95.136 95.132-249.934 0-345.070l-87.766-87.766c-20.308-20.308-53.23-20.308-73.54 0-20.306 20.306-20.306 53.232 0 73.54l87.766 87.766c54.584 54.586 54.584 143.404 0 197.99-26.442 26.442-61.6 41.004-98.996 41.004s-72.552-14.562-98.996-41.006l-192-191.998c-54.586-54.586-54.586-143.406 0-197.992 20.308-20.306 20.306-53.232 0-73.54-10.15-10.152-23.462-15.23-36.768-15.23zM256-52c-65.176 0-126.45 25.38-172.534 71.464-95.134 95.136-95.134 249.934 0 345.070l87.764 87.764c20.308 20.306 53.234 20.306 73.54 0 20.308-20.306 20.308-53.232 0-73.54l-87.764-87.764c-54.586-54.586-54.586-143.406 0-197.992 26.44-26.44 61.598-41.002 98.994-41.002s72.552 14.562 98.998 41.006l192 191.998c54.584 54.586 54.584 143.406 0 197.992-20.308 20.308-20.306 53.232 0 73.54 20.306 20.306 53.232 20.306 73.54-0.002 95.132-95.134 95.132-249.932 0.002-345.068l-192.002-192c-46.090-46.088-107.364-71.466-172.538-71.466z" />
<glyph unicode="&#xea10;" glyph-name="checkmark" d="M864 832l-480-480-224 224-160-160 384-384 640 640z" />
<glyph unicode="&#xea3a;" glyph-name="arrow-up2" d="M877.254 557.254l-320 320c-24.992 24.994-65.514 24.994-90.508 0l-320-320c-24.994-24.994-24.994-65.516 0-90.51 24.994-24.996 65.516-24.996 90.51 0l210.744 210.746v-613.49c0-35.346 28.654-64 64-64s64 28.654 64 64v613.49l210.746-210.746c12.496-12.496 28.876-18.744 45.254-18.744s32.758 6.248 45.254 18.746c24.994 24.994 24.994 65.514 0 90.508z" />
<glyph unicode="&#xea3c;" glyph-name="arrow-right2" d="M621.254 82.746l320 320c24.994 24.992 24.994 65.516 0 90.51l-320 320c-24.994 24.992-65.516 24.992-90.51 0-24.994-24.994-24.994-65.516 0-90.51l210.746-210.746h-613.49c-35.346 0-64-28.654-64-64s28.654-64 64-64h613.49l-210.746-210.746c-12.496-12.496-18.744-28.876-18.744-45.254s6.248-32.758 18.744-45.254c24.994-24.994 65.516-24.994 90.51 0z" />
<glyph unicode="&#xea3e;" glyph-name="arrow-down2" d="M877.254 338.746l-320-320c-24.992-24.994-65.514-24.994-90.508 0l-320 320c-24.994 24.994-24.994 65.516 0 90.51 24.994 24.996 65.516 24.996 90.51 0l210.744-210.746v613.49c0 35.346 28.654 64 64 64s64-28.654 64-64v-613.49l210.746 210.746c12.496 12.496 28.876 18.744 45.254 18.744s32.758-6.248 45.254-18.746c24.994-24.994 24.994-65.514 0-90.508z" />
<glyph unicode="&#xea40;" glyph-name="arrow-left2" d="M402.746 82.746l-320 320c-24.994 24.992-24.994 65.516 0 90.51l320 320c24.994 24.992 65.516 24.992 90.51 0 24.994-24.994 24.994-65.516 0-90.51l-210.746-210.746h613.49c35.346 0 64-28.654 64-64s-28.654-64-64-64h-613.49l210.746-210.746c12.496-12.496 18.744-28.876 18.744-45.254s-6.248-32.758-18.744-45.254c-24.994-24.994-65.516-24.994-90.51 0z" />
<glyph unicode="&#xea92;" glyph-name="instagram" d="M512 867.8c136.8 0 153-0.6 206.8-3 50-2.2 77-10.6 95-17.6 23.8-9.2 41-20.4 58.8-38.2 18-18 29-35 38.4-58.8 7-18 15.4-45.2 17.6-95 2.4-54 3-70.2 3-206.8s-0.6-153-3-206.8c-2.2-50-10.6-77-17.6-95-9.2-23.8-20.4-41-38.2-58.8-18-18-35-29-58.8-38.4-18-7-45.2-15.4-95-17.6-54-2.4-70.2-3-206.8-3s-153 0.6-206.8 3c-50 2.2-77 10.6-95 17.6-23.8 9.2-41 20.4-58.8 38.2-18 18-29 35-38.4 58.8-7 18-15.4 45.2-17.6 95-2.4 54-3 70.2-3 206.8s0.6 153 3 206.8c2.2 50 10.6 77 17.6 95 9.2 23.8 20.4 41 38.2 58.8 18 18 35 29 58.8 38.4 18 7 45.2 15.4 95 17.6 53.8 2.4 70 3 206.8 3zM512 960c-139 0-156.4-0.6-211-3-54.4-2.4-91.8-11.2-124.2-23.8-33.8-13.2-62.4-30.6-90.8-59.2-28.6-28.4-46-57-59.2-90.6-12.6-32.6-21.4-69.8-23.8-124.2-2.4-54.8-3-72.2-3-211.2s0.6-156.4 3-211c2.4-54.4 11.2-91.8 23.8-124.2 13.2-33.8 30.6-62.4 59.2-90.8 28.4-28.4 57-46 90.6-59 32.6-12.6 69.8-21.4 124.2-23.8 54.6-2.4 72-3 211-3s156.4 0.6 211 3c54.4 2.4 91.8 11.2 124.2 23.8 33.6 13 62.2 30.6 90.6 59s46 57 59 90.6c12.6 32.6 21.4 69.8 23.8 124.2 2.4 54.6 3 72 3 211s-0.6 156.4-3 211c-2.4 54.4-11.2 91.8-23.8 124.2-12.6 34-30 62.6-58.6 91-28.4 28.4-57 46-90.6 59-32.6 12.6-69.8 21.4-124.2 23.8-54.8 2.6-72.2 3.2-211.2 3.2v0zM512 711c-145.2 0-263-117.8-263-263s117.8-263 263-263 263 117.8 263 263c0 145.2-117.8 263-263 263zM512 277.4c-94.2 0-170.6 76.4-170.6 170.6s76.4 170.6 170.6 170.6c94.2 0 170.6-76.4 170.6-170.6s-76.4-170.6-170.6-170.6zM846.8 721.4c0-33.91-27.49-61.4-61.4-61.4s-61.4 27.49-61.4 61.4c0 33.91 27.49 61.4 61.4 61.4s61.4-27.49 61.4-61.4z" />
<glyph unicode="&#xea9e;" glyph-name="youtube2" horiz-adv-x="2569" d="M344.012 790.601c0.209 0.865 0.344 1.479 0.388 1.8l1.042 7.559-47.349 0.267c-42.779 0.242-55.87-0.007-57.047-1.084-0.565-0.516-15.333-56.633-41.655-158.273-12.556-48.484-23.124-87.206-23.487-86.051s-15.391 56.498-33.397 122.98c-18.006 66.482-33.104 121.243-33.55 121.692-0.623 0.623-57.98 0.9-104.417 0.502-6.735-0.056-10.477 13.11 60.021-211.133 9.759-31.041 24.371-74.997 32.469-97.679 9.333-26.141 15.989-46.323 20.534-63.173 8.038-32.067 8.319-52.163 6.565-75.625-2.026-27.101-2.321-218.438-0.342-221.638 1.512-2.449 91.223-3.589 99.712-1.268 1.358 0.372 2.265 1.691 2.87 8.928 2.119 6.219 2.286 30.969 2.286 133.744v131.281l5.742 18.112c3.756 11.849 13.201 42.995 20.989 69.22 7.789 26.222 17.21 57.619 20.938 69.771 33.834 110.319 66.14 218.831 66.994 225.011l0.693 5.056zM846.122 631.349l-0.021-6.838-1.065-0.014-0.595-188.993-0.577-183.227-14.666-14.929c-16.424-16.719-29.585-23.101-41.488-20.113-12.963 3.254-12.64-1.8-13.722 214.768l-0.998 199.347h-94.316v-6.851h-1.086v-216.289c0-231.737-0.007-231.599 11.752-254.875 9.366-18.536 23.010-27.559 46.391-30.671h0.002c30.79-4.1 64.001 9.849 94.77 39.809l13.373 13.022v-22.445c0-19.396 0.554-22.601 4.070-23.58 5.756-1.605 77.173-1.707 84.89-0.126l6.396 1.314v6.628l1.086 0.223v495.098l-94.195-1.258zM606.892 533.67c-8.935 38.341-25.68 64.115-53.233 81.939-43.281 27.999-92.718 30.957-138.586 8.291-33.425-16.515-54.951-43.914-66.071-84.083-1.326-4.786-2.298-8.812-3.033-14.815-2.83-14.184-3.163-35.351-3.889-133.951-1.121-151.928 0.616-170.003 19.643-204.51 18.664-33.848 57.403-58.661 99.572-63.782 12.696-1.54 38.43 0.858 53.23 4.961 33.632 9.326 65.864 35.906 80.118 66.078 6.158 13.033 9.875 22.096 12.115 38.651 4.175 22.617 4.47 59.175 4.47 152.375-0.002 118.875-0.379 131.862-4.337 148.847zM499.34 223.997c-7.907-6.028-21.734-8.649-32.983-6.249-8.656 1.847-20.338 15.419-23.934 27.801-4.479 15.436-4.823 229.985-0.954 272.059 6.379 21.054 24.19 32.050 43.635 26.813 15.157-4.082 22.915-13.575 27.336-33.457 3.282-14.754 3.67-33.129 2.972-141.26-0.46-71.701-0.716-106.742-3.058-125.553-2.382-11.87-6.319-15.047-13.015-20.154zM2300.389 425.863h45.57l-0.726 41.281c-0.705 37.869-1.263 42.2-6.324 52.472-7.982 16.21-19.759 23.401-38.446 23.401-22.448 0-36.678-10.849-43.388-33.141-2.858-9.486-5.863-74.685-3.707-80.308 1.205-3.144 7.724-3.705 47.021-3.705zM1995.795 519.763c-6.077 12.247-17.385 18.278-30.525 17.806-10.221-0.365-21.561-4.677-32.488-13.010l-8.14-6.177v-296.598l8.14-6.177c18.429-14.052 38.674-17.031 52.619-7.703 5.519 3.691 9.117 8.779 11.919 16.861 3.647 10.524 3.965 24.003 3.489 148.772-0.495 130.043-0.781 137.702-5.014 146.226zM2560.878 653.367c-9.080 108.842-16.303 144.165-38.751 189.544-29.729 60.101-72.692 91.788-133.876 98.747-47.309 5.379-225.315 12.97-390.044 16.631-285.188 6.338-754.057-5.858-813.939-21.173-27.673-7.077-48.426-19.11-70.022-40.604-37.844-37.662-60.391-91.679-69.452-166.396-20.692-170.606-21.134-376.727-1.188-553.515 8.577-76.041 26.243-125.443 59.41-166.159 20.694-25.406 56.352-46.998 88.26-53.442 22.385-4.523 134.42-10.798 297.605-16.668 24.306-0.874 88.667-2.379 143.030-3.344 113.301-2.012 321.627-0.821 440.719 2.519 80.127 2.249 226.201 8.172 253.5 10.282 7.677 0.593 25.469 1.728 39.537 2.523 47.277 2.67 77.353 12.568 105.596 34.76 36.553 28.718 64.857 81.795 76.815 144.037 11.314 58.894 18.887 163.773 20.422 282.851 1.284 99.491-0.426 153.175-7.621 239.409zM1425.273 692.808l-52.982-0.654-2.326-565.143-45.932-0.581c-35.525-0.488-46.307 0.044-47.167 2.326-0.616 1.626-1.356 129.020-1.672 283.153l-0.581 280.246-103.493 1.307v88.304l305.829-1.235 1.307-87.069-52.982-0.654zM1750.216 368.883v-243.035h-83.725v25.583c0 19.247-0.735 25.583-2.979 25.583-1.64 0-9.226-6.344-16.861-14.098-16.557-16.817-36.171-30.367-52.91-36.63-34.662-12.968-67.589-5.4-81.618 18.75-12.838 22.11-13.082 27.052-13.082 256.335v210.547h83.653l0.654-198.265c0.623-194.821 0.714-198.393 5.377-206.333 6.182-10.521 15.608-13.347 30.597-9.231 8.817 2.423 14.836 6.707 29.143 20.931l18.024 17.952v374.946h83.725v-243.035zM2076.757 160.59c-7.372-16.424-23.806-32.509-37.283-36.485-35.167-10.382-63.375-1.923-95.935 28.708-10.103 9.505-19.51 17.224-20.931 17.224-1.712 0-2.616-7.449-2.616-22.094v-22.094h-83.725v655.845h83.725v-106.982c0-58.84 0.786-106.982 1.744-106.982s9.789 7.807 19.624 17.298c22.629 21.841 41.548 31.399 65.557 33.213 42.811 3.24 68.327-18.794 80.018-69.117 3.647-15.696 3.998-33.625 3.998-179.078-0.002-177.178-0.021-177.918-14.175-209.457zM2430.99 257.832c-0.744-18.226-2.954-39.137-4.942-46.514-11.642-43.167-42.635-73.731-87.432-86.269-60.315-16.878-126.704 10.777-153.205 63.812-14.875 29.769-15.408 35.706-15.408 181.185 0 118.617 0.419 133.171 4.214 149.354 10.747 45.788 37.392 75.422 82.49 91.865 13.068 4.765 26.708 7.207 40.337 7.486 48.672 0.998 96.984-25.18 117.229-67.808 13.659-28.76 15.35-41.060 16.717-122.099l1.235-72.678-178.497-1.235-0.654-48.84c-0.93-68.901 3.716-90.088 22.313-102.621 15.645-10.54 39.679-9.745 52.765 1.744 12.263 10.768 15.726 22.336 16.933 56.107l1.091 29.653h86.195l-1.381-33.143z" />
<glyph unicode="&#xeaa4;" glyph-name="flickr2" d="M800 544c-70.58 0-128-57.42-128-128s57.42-128 128-128c70.58 0 128 57.42 128 128s-57.42 128-128 128zM800 640v0c123.71 0 224-100.288 224-224 0-123.71-100.29-224-224-224s-224 100.29-224 224c0 123.712 100.29 224 224 224zM0 416c0 123.712 100.288 224 224 224s224-100.288 224-224c0-123.712-100.288-224-224-224s-224 100.288-224 224z" />
<glyph unicode="&#xeab9;" glyph-name="tumblr" d="M576.032 512l-0.002-234.184c0-59.418-0.77-93.656 5.53-110.5 6.25-16.754 21.918-34.146 38.99-44.202 22.684-13.588 48.542-20.376 77.708-20.376 51.854 0 82.478 6.848 133.742 40.54v-153.944c-43.7-20.552-81.866-32.594-117.324-40.922-35.5-8.242-73.86-12.406-115.064-12.406-46.828 0-74.456 5.886-110.41 17.656-35.958 11.868-66.66 28.806-92.020 50.54-25.45 21.922-43.022 45.208-52.848 69.832-9.826 24.636-14.716 60.414-14.716 107.244v359.1h-137.426v145.006c40.208 13.042 85.164 31.788 113.78 56.152 28.754 24.45 51.766 53.706 69.106 87.944 17.392 34.146 29.348 77.712 35.872 130.516h165.084l-0.002-255.996h255.968v-192h-255.968z" />
<glyph unicode="&#xeaca;" glyph-name="linkedin2" d="M384 576h177.106v-90.782h2.532c24.64 44.194 84.958 90.782 174.842 90.782 186.946 0 221.52-116.376 221.52-267.734v-308.266h-184.61v273.278c0 65.184-1.334 149.026-96.028 149.026-96.148 0-110.82-70.986-110.82-144.292v-278.012h-184.542v576zM64 576h192v-576h-192v576zM256 736c0-53.019-42.981-96-96-96s-96 42.981-96 96c0 53.019 42.981 96 96 96s96-42.981 96-96z" />
<glyph unicode="&#xeb3f;" glyph-name="business_center" d="M598 640.667v84h-172v-84h172zM854 640.667c46 0 84-40 84-86v-128c0-46-38-86-84-86h-256v86h-172v-86h-256c-48 0-84 38-84 86v128c0 46 38 86 84 86h170v84l86 86h170l86-86v-84h172zM426 256.667h172v42h298v-170c0-48-38-86-86-86h-596c-48 0-86 38-86 86v170h298v-42z" />
<glyph unicode="&#xf003;" glyph-name="envelope-o" d="M950.857 91.428v438.857q-18.286-20.571-39.429-37.714-153.143-117.714-243.429-193.143-29.143-24.571-47.429-38.286t-49.429-27.714-58.571-14h-1.143q-27.429 0-58.571 14t-49.429 27.714-47.429 38.286q-90.286 75.429-243.429 193.143-21.143 17.143-39.429 37.714v-438.857q0-7.429 5.429-12.857t12.857-5.429h841.143q7.429 0 12.857 5.429t5.429 12.857zM950.857 692v14t-0.286 7.429-1.714 7.143-3.143 5.143-5.143 4.286-8 1.429h-841.143q-7.429 0-12.857-5.429t-5.429-12.857q0-96 84-162.286 110.286-86.857 229.143-181.143 3.429-2.857 20-16.857t26.286-21.429 25.429-18 28.857-15.714 24.571-5.143h1.143q11.429 0 24.571 5.143t28.857 15.714 25.429 18 26.286 21.429 20 16.857q118.857 94.286 229.143 181.143 30.857 24.571 57.429 66t26.571 75.143zM1024 713.143v-621.714q0-37.714-26.857-64.571t-64.571-26.857h-841.143q-37.714 0-64.571 26.857t-26.857 64.571v621.714q0 37.714 26.857 64.571t64.571 26.857h841.143q37.714 0 64.571-26.857t26.857-64.571z" />
<glyph unicode="&#xf004;" glyph-name="heart" d="M512 0c-9.143 0-18.286 3.429-25.143 10.286l-356.571 344c-4.571 4-130.286 118.857-130.286 256 0 167.429 102.286 267.429 273.143 267.429 100 0 193.714-78.857 238.857-123.429 45.143 44.571 138.857 123.429 238.857 123.429 170.857 0 273.143-100 273.143-267.429 0-137.143-125.714-252-130.857-257.143l-356-342.857c-6.857-6.857-16-10.286-25.143-10.286z" />
<glyph unicode="&#xf005;" glyph-name="star" horiz-adv-x="951" d="M950.857 581.143c0-10.286-7.429-20-14.857-27.429l-207.429-202.286 49.143-285.714c0.571-4 0.571-7.429 0.571-11.429 0-14.857-6.857-28.571-23.429-28.571-8 0-16 2.857-22.857 6.857l-256.571 134.857-256.571-134.857c-7.429-4-14.857-6.857-22.857-6.857-16.571 0-24 13.714-24 28.571 0 4 0.571 7.429 1.143 11.429l49.143 285.714-208 202.286c-6.857 7.429-14.286 17.143-14.286 27.429 0 17.143 17.714 24 32 26.286l286.857 41.714 128.571 260c5.143 10.857 14.857 23.429 28 23.429s22.857-12.571 28-23.429l128.571-260 286.857-41.714c13.714-2.286 32-9.143 32-26.286z" />
<glyph unicode="&#xf006;" glyph-name="star-o" horiz-adv-x="951" d="M649.714 377.143l174.857 169.714-241.143 35.429-108 218.286-108-218.286-241.143-35.429 174.857-169.714-41.714-240.571 216 113.714 215.429-113.714zM950.857 581.143c0-10.286-7.429-20-14.857-27.429l-207.429-202.286 49.143-285.714c0.571-4 0.571-7.429 0.571-11.429 0-15.429-6.857-28.571-23.429-28.571-8 0-16 2.857-22.857 6.857l-256.571 134.857-256.571-134.857c-7.429-4-14.857-6.857-22.857-6.857-16.571 0-24 13.714-24 28.571 0 4 0.571 7.429 1.143 11.429l49.143 285.714-208 202.286c-6.857 7.429-14.286 17.143-14.286 27.429 0 17.143 17.714 24 32 26.286l286.857 41.714 128.571 260c5.143 10.857 14.857 23.429 28 23.429s22.857-12.571 28-23.429l128.571-260 286.857-41.714c13.714-2.286 32-9.143 32-26.286z" />
<glyph unicode="&#xf00c;" glyph-name="check" d="M954.857 627.428c0-14.286-5.714-28.571-16-38.857l-491.429-491.429c-10.286-10.286-24.571-16-38.857-16s-28.571 5.714-38.857 16l-284.571 284.571c-10.286 10.286-16 24.571-16 38.857s5.714 28.571 16 38.857l77.714 77.714c10.286 10.286 24.571 16 38.857 16s28.571-5.714 38.857-16l168-168.571 374.857 375.429c10.286 10.286 24.571 16 38.857 16s28.571-5.714 38.857-16l77.714-77.714c10.286-10.286 16-24.571 16-38.857z" />
<glyph unicode="&#xf00e;" glyph-name="search-plus" horiz-adv-x="951" d="M365.714 493.714v-36.571c0-9.714 8.571-18.286 18.286-18.286h128v-128c0-9.714 8.571-18.286 18.286-18.286h36.571c9.714 0 18.286 8.571 18.286 18.286v128h128c9.714 0 18.286 8.571 18.286 18.286v36.571c0 9.714-8.571 18.286-18.286 18.286h-128v128c0 9.714-8.571 18.286-18.286 18.286h-36.571c-9.714 0-18.286-8.571-18.286-18.286v-128h-128c-9.714 0-18.286-8.571-18.286-18.286zM292.571 475.428c0 141.143 114.857 256 256 256s256-114.857 256-256-114.857-256-256-256-256 114.857-256 256zM0 0c0-40.571 32.571-73.143 73.143-73.143 19.429 0 38.286 8 51.429 21.714l196 195.429c66.857-46.286 146.857-70.857 228-70.857 222.286 0 402.286 180 402.286 402.286s-180 402.286-402.286 402.286-402.286-180-402.286-402.286c0-81.143 24.571-161.143 70.857-228l-196-196c-13.143-13.143-21.143-32-21.143-51.429z" />
<glyph unicode="&#xf012;" glyph-name="signal" d="M146.286 128v-109.714c0-10.286-8-18.286-18.286-18.286h-109.714c-10.286 0-18.286 8-18.286 18.286v109.714c0 10.286 8 18.286 18.286 18.286h109.714c10.286 0 18.286-8 18.286-18.286zM365.714 201.143v-182.857c0-10.286-8-18.286-18.286-18.286h-109.714c-10.286 0-18.286 8-18.286 18.286v182.857c0 10.286 8 18.286 18.286 18.286h109.714c10.286 0 18.286-8 18.286-18.286zM585.143 347.428v-329.143c0-10.286-8-18.286-18.286-18.286h-109.714c-10.286 0-18.286 8-18.286 18.286v329.143c0 10.286 8 18.286 18.286 18.286h109.714c10.286 0 18.286-8 18.286-18.286zM804.571 566.857v-548.571c0-10.286-8-18.286-18.286-18.286h-109.714c-10.286 0-18.286 8-18.286 18.286v548.571c0 10.286 8 18.286 18.286 18.286h109.714c10.286 0 18.286-8 18.286-18.286zM1024 859.428v-841.143c0-10.286-8-18.286-18.286-18.286h-109.714c-10.286 0-18.286 8-18.286 18.286v841.143c0 10.286 8 18.286 18.286 18.286h109.714c10.286 0 18.286-8 18.286-18.286z" />
<glyph unicode="&#xf013;" glyph-name="cog" horiz-adv-x="878" d="M585.143 438.857c0 80.571-65.714 146.286-146.286 146.286s-146.286-65.714-146.286-146.286 65.714-146.286 146.286-146.286 146.286 65.714 146.286 146.286zM877.714 501.143v-126.857c0-8.571-6.857-18.857-16-20.571l-105.714-16c-6.286-18.286-13.143-35.429-22.286-52 19.429-28 40-53.143 61.143-78.857 3.429-4 5.714-9.143 5.714-14.286s-1.714-9.143-5.143-13.143c-13.714-18.286-90.857-102.286-110.286-102.286-5.143 0-10.286 2.286-14.857 5.143l-78.857 61.714c-16.571-8.571-34.286-16-52-21.714-4-34.857-7.429-72-16.571-106.286-2.286-9.143-10.286-16-20.571-16h-126.857c-10.286 0-19.429 7.429-20.571 17.143l-16 105.143c-17.714 5.714-34.857 12.571-51.429 21.143l-80.571-61.143c-4-3.429-9.143-5.143-14.286-5.143s-10.286 2.286-14.286 6.286c-30.286 27.429-70.286 62.857-94.286 96-2.857 4-4 8.571-4 13.143 0 5.143 1.714 9.143 4.571 13.143 19.429 26.286 40.571 51.429 60 78.286-9.714 18.286-17.714 37.143-23.429 56.571l-104.571 15.429c-9.714 1.714-16.571 10.857-16.571 20.571v126.857c0 8.571 6.857 18.857 15.429 20.571l106.286 16c5.714 18.286 13.143 35.429 22.286 52.571-19.429 27.429-40 53.143-61.143 78.857-3.429 4-5.714 8.571-5.714 13.714s2.286 9.143 5.143 13.143c13.714 18.857 90.857 102.286 110.286 102.286 5.143 0 10.286-2.286 14.857-5.714l78.857-61.143c16.571 8.571 34.286 16 52 21.714 4 34.857 7.429 72 16.571 106.286 2.286 9.143 10.286 16 20.571 16h126.857c10.286 0 19.429-7.429 20.571-17.143l16-105.143c17.714-5.714 34.857-12.571 51.429-21.143l81.143 61.143c3.429 3.429 8.571 5.143 13.714 5.143s10.286-2.286 14.286-5.714c30.286-28 70.286-63.429 94.286-97.143 2.857-3.429 4-8 4-12.571 0-5.143-1.714-9.143-4.571-13.143-19.429-26.286-40.571-51.429-60-78.286 9.714-18.286 17.714-37.143 23.429-56l104.571-16c9.714-1.714 16.571-10.857 16.571-20.571z" />
<glyph unicode="&#xf024;" glyph-name="flag" horiz-adv-x="1061" d="M182.857 804.571c0-26.286-14.286-49.714-36.571-62.857v-723.429c0-9.714-8.571-18.286-18.286-18.286h-36.571c-9.714 0-18.286 8.571-18.286 18.286v723.429c-22.286 13.143-36.571 36.571-36.571 62.857 0 40.571 32.571 73.143 73.143 73.143s73.143-32.571 73.143-73.143zM1024 768v-436c0-21.143-13.143-29.143-29.714-37.714-64.571-34.857-136-66.286-210.857-66.286-105.143 0-155.429 80-280 80-90.857 0-186.286-41.143-265.143-83.429-6.286-3.429-12-5.143-18.857-5.143-20 0-36.571 16.571-36.571 36.571v424c0 13.714 6.857 23.429 17.714 31.429 13.714 9.143 30.286 17.143 45.143 24.571 72 36.571 159.429 68.571 240.571 68.571 89.714 0 160-29.714 239.429-66.857 16-8 32.571-10.857 50.286-10.857 89.714 0 186.286 77.714 211.429 77.714 20 0 36.571-16.571 36.571-36.571z" />
<glyph unicode="&#xf02b;" glyph-name="tag" horiz-adv-x="866" d="M256 694.857q0 30.286-21.429 51.714t-51.714 21.429-51.714-21.429-21.429-51.714 21.429-51.714 51.714-21.429 51.714 21.429 21.429 51.714zM865.714 365.714q0-30.286-21.143-51.429l-280.571-281.143q-22.286-21.143-52-21.143-30.286 0-51.429 21.143l-408.571 409.143q-21.714 21.143-36.857 57.714t-15.143 66.857v237.714q0 29.714 21.714 51.429t51.429 21.714h237.714q30.286 0 66.857-15.143t58.286-36.857l408.571-408q21.143-22.286 21.143-52z" />
<glyph unicode="&#xf040;" glyph-name="pencil" horiz-adv-x="866" d="M207.429 73.143l52 52-134.286 134.286-52-52v-61.143h73.143v-73.143h61.143zM506.286 603.428q0 12.571-12.571 12.571-5.714 0-9.714-4l-309.714-309.714q-4-4-4-9.714 0-12.571 12.571-12.571 5.714 0 9.714 4l309.714 309.714q4 4 4 9.714zM475.429 713.143l237.714-237.714-475.429-475.429h-237.714v237.714zM865.714 658.286q0-30.286-21.143-51.429l-94.857-94.857-237.714 237.714 94.857 94.286q20.571 21.714 51.429 21.714 30.286 0 52-21.714l134.286-133.714q21.143-22.286 21.143-52z" />
<glyph unicode="&#xf071;" glyph-name="warning" d="M585.143 165.143v108.571q0 8-5.429 13.429t-12.857 5.429h-109.714q-7.429 0-12.857-5.429t-5.429-13.429v-108.571q0-8 5.429-13.429t12.857-5.429h109.714q7.429 0 12.857 5.429t5.429 13.429zM584 378.857l10.286 262.286q0 6.857-5.714 10.857-7.429 6.286-13.714 6.286h-125.714q-6.286 0-13.714-6.286-5.714-4-5.714-12l9.714-261.143q0-5.714 5.714-9.429t13.714-3.714h105.714q8 0 13.429 3.714t6 9.429zM576 912.571l438.857-804.571q20-36-1.143-72-9.714-16.571-26.571-26.286t-36.286-9.714h-877.714q-19.429 0-36.286 9.714t-26.571 26.286q-21.143 36-1.143 72l438.857 804.571q9.714 17.714 26.857 28t37.143 10.286 37.143-10.286 26.857-28z" />
<glyph unicode="&#xf080;" glyph-name="bar-chart" horiz-adv-x="1170" d="M365.714 438.857v-292.571h-146.286v292.571h146.286zM585.143 731.428v-585.143h-146.286v585.143h146.286zM1170.286 73.143v-73.143h-1170.286v877.714h73.143v-804.571h1097.143zM804.571 585.143v-438.857h-146.286v438.857h146.286zM1024 804.571v-658.286h-146.286v658.286h146.286z" />
<glyph unicode="&#xf085;" glyph-name="cogs" horiz-adv-x="1097" d="M512 438.857c0 80.571-65.714 146.286-146.286 146.286s-146.286-65.714-146.286-146.286 65.714-146.286 146.286-146.286 146.286 65.714 146.286 146.286zM950.857 146.286c0 40-33.143 73.143-73.143 73.143s-73.143-33.143-73.143-73.143c0-40.571 33.143-73.143 73.143-73.143 40.571 0 73.143 33.143 73.143 73.143zM950.857 731.428c0 40-33.143 73.143-73.143 73.143s-73.143-33.143-73.143-73.143c0-40.571 33.143-73.143 73.143-73.143 40.571 0 73.143 33.143 73.143 73.143zM731.429 490.857v-105.714c0-7.429-5.714-16-13.143-17.143l-88.571-13.714c-4.571-14.857-10.857-29.143-18.286-43.429 16-22.857 33.143-44 51.429-65.714 2.286-3.429 4-6.857 4-11.429 0-4-1.143-8-4-10.857-11.429-15.429-75.429-85.143-92-85.143-4.571 0-8.571 1.714-12 4l-65.714 51.429c-14.286-7.429-28.571-13.143-44-17.714-2.857-29.143-5.714-60.571-13.143-88.571-2.286-8-9.143-13.714-17.143-13.714h-106.286c-8 0-16 6.286-17.143 14.286l-13.143 87.429c-14.857 4.571-29.143 10.857-42.857 17.714l-67.429-50.857c-2.857-2.857-7.429-4-11.429-4-4.571 0-8.571 1.714-12 4.571-14.857 13.714-82.286 74.857-82.286 91.429 0 4 1.714 7.429 4 10.857 16.571 21.714 33.714 42.857 50.286 65.143-8 15.429-14.857 30.857-20 46.857l-86.857 13.714c-8 1.143-13.714 8.571-13.714 16.571v105.714c0 7.429 5.714 16 13.143 17.143l88.571 13.714c4.571 14.857 10.857 29.143 18.286 43.429-16 22.857-33.143 44-51.429 65.714-2.286 3.429-4 7.429-4 11.429s1.143 8 4 11.429c11.429 15.429 75.429 84.571 92 84.571 4.571 0 8.571-1.714 12-4l65.714-51.429c14.286 7.429 28.571 13.143 44 18.286 2.857 28.571 5.714 60 13.143 88 2.286 8 9.143 13.714 17.143 13.714h106.286c8 0 16-6.286 17.143-14.286l13.143-87.429c14.857-4.571 29.143-10.857 42.857-17.714l67.429 50.857c3.429 2.857 7.429 4 11.429 4 4.571 0 8.571-1.714 12-4.571 14.857-13.714 82.286-75.429 82.286-91.429 0-4-1.714-7.429-4-10.857-16.571-22.286-33.714-42.857-49.714-65.143 7.429-15.429 14.286-30.857 19.429-46.857l86.857-13.143c8-1.714 13.714-9.143 13.714-17.143zM1097.143 186.286v-80c0-8.571-73.714-16.571-85.143-17.714-4.571-10.857-10.286-20.571-17.143-29.714 5.143-11.429 29.143-68.571 29.143-78.857 0-1.714-0.571-2.857-2.286-4-6.857-4-68-40.571-70.857-40.571-7.429 0-50.286 57.143-56 65.714-5.714-0.571-11.429-1.143-17.143-1.143s-11.429 0.571-17.143 1.143c-5.714-8.571-48.571-65.714-56-65.714-2.857 0-64 36.571-70.857 40.571-1.714 1.143-2.286 2.857-2.286 4 0 9.714 24 67.429 29.143 78.857-6.857 9.143-12.571 18.857-17.143 29.714-11.429 1.143-85.143 9.143-85.143 17.714v80c0 8.571 73.714 16.571 85.143 17.714 4.571 10.286 10.286 20.571 17.143 29.714-5.143 11.429-29.143 69.143-29.143 78.857 0 1.143 0.571 2.857 2.286 4 6.857 3.429 68 40 70.857 40 7.429 0 50.286-56.571 56-65.143 5.714 0.571 11.429 1.143 17.143 1.143s11.429-0.571 17.143-1.143c16 22.286 33.143 44.571 52.571 64l3.429 1.143c2.857 0 64-36 70.857-40 1.714-1.143 2.286-2.857 2.286-4 0-10.286-24-67.429-29.143-78.857 6.857-9.143 12.571-19.429 17.143-29.714 11.429-1.143 85.143-9.143 85.143-17.714zM1097.143 771.428v-80c0-8.571-73.714-16.571-85.143-17.714-4.571-10.857-10.286-20.571-17.143-29.714 5.143-11.429 29.143-68.571 29.143-78.857 0-1.714-0.571-2.857-2.286-4-6.857-4-68-40.571-70.857-40.571-7.429 0-50.286 57.143-56 65.714-5.714-0.571-11.429-1.143-17.143-1.143s-11.429 0.571-17.143 1.143c-5.714-8.571-48.571-65.714-56-65.714-2.857 0-64 36.571-70.857 40.571-1.714 1.143-2.286 2.857-2.286 4 0 9.714 24 67.429 29.143 78.857-6.857 9.143-12.571 18.857-17.143 29.714-11.429 1.143-85.143 9.143-85.143 17.714v80c0 8.571 73.714 16.571 85.143 17.714 4.571 10.286 10.286 20.571 17.143 29.714-5.143 11.429-29.143 69.143-29.143 78.857 0 1.143 0.571 2.857 2.286 4 6.857 3.429 68 40 70.857 40 7.429 0 50.286-56.571 56-65.143 5.714 0.571 11.429 1.143 17.143 1.143s11.429-0.571 17.143-1.143c16 22.286 33.143 44.571 52.571 64l3.429 1.143c2.857 0 64-36 70.857-40 1.714-1.143 2.286-2.857 2.286-4 0-10.286-24-67.429-29.143-78.857 6.857-9.143 12.571-19.429 17.143-29.714 11.429-1.143 85.143-9.143 85.143-17.714z" />
<glyph unicode="&#xf08a;" glyph-name="heart-o" d="M950.857 610.286c0 160.571-108.571 194.286-200 194.286-85.143 0-181.143-92-210.857-127.429-13.714-16.571-42.286-16.571-56 0-29.714 35.429-125.714 127.429-210.857 127.429-91.429 0-200-33.714-200-194.286 0-104.571 105.714-201.714 106.857-202.857l332-320 331.429 319.429c1.714 1.714 107.429 98.857 107.429 203.429zM1024 610.286c0-137.143-125.714-252-130.857-257.143l-356-342.857c-6.857-6.857-16-10.286-25.143-10.286s-18.286 3.429-25.143 10.286l-356.571 344c-4.571 4-130.286 118.857-130.286 256 0 167.429 102.286 267.429 273.143 267.429 100 0 193.714-78.857 238.857-123.429 45.143 44.571 138.857 123.429 238.857 123.429 170.857 0 273.143-100 273.143-267.429z" />
<glyph unicode="&#xf095;" glyph-name="phone" horiz-adv-x="805" d="M804.571 242.286q0-15.429-5.714-40.286t-12-39.143q-12-28.571-69.714-60.571-53.714-29.143-106.286-29.143-15.429 0-30 2t-32.857 7.143-27.143 8.286-31.714 11.714-28 10.286q-56 20-100 47.429-73.143 45.143-151.143 123.143t-123.143 151.143q-27.429 44-47.429 100-1.714 5.143-10.286 28t-11.714 31.714-8.286 27.143-7.143 32.857-2 30q0 52.571 29.143 106.286 32 57.714 60.571 69.714 14.286 6.286 39.143 12t40.286 5.714q8 0 12-1.714 10.286-3.429 30.286-43.429 6.286-10.857 17.143-30.857t20-36.286 17.714-30.571q1.714-2.286 10-14.286t12.286-20.286 4-16.286q0-11.429-16.286-28.571t-35.429-31.429-35.429-30.286-16.286-26.286q0-5.143 2.857-12.857t4.857-11.714 8-13.714 6.571-10.857q43.429-78.286 99.429-134.286t134.286-99.429q1.143-0.571 10.857-6.571t13.714-8 11.714-4.857 12.857-2.857q10.286 0 26.286 16.286t30.286 35.429 31.429 35.429 28.571 16.286q8 0 16.286-4t20.286-12.286 14.286-10q14.286-8.571 30.571-17.714t36.286-20 30.857-17.143q40-20 43.429-30.286 1.714-4 1.714-12z" />
<glyph unicode="&#xf0ac;" glyph-name="globe" horiz-adv-x="878" d="M438.857 877.714c242.286 0 438.857-196.571 438.857-438.857s-196.571-438.857-438.857-438.857-438.857 196.571-438.857 438.857 196.571 438.857 438.857 438.857zM595.429 580c-4.571-3.429-7.429-9.714-13.143-10.857 2.857 0.571 5.714 10.857 7.429 13.143 3.429 4 8 6.286 12.571 8.571 9.714 4 19.429 5.143 29.714 6.857 9.714 2.286 21.714 2.286 29.143-6.286-1.714 1.714 12 13.714 13.714 14.286 5.143 2.857 13.714 1.714 17.143 6.857 1.143 1.714 1.143 12.571 1.143 12.571-9.714-1.143-13.143 8-13.714 16 0-0.571-1.143-2.286-3.429-4.571 0.571 8.571-10.286 2.286-14.286 3.429-13.143 3.429-11.429 12.571-15.429 22.286-2.286 5.143-8.571 6.857-10.857 12-2.286 3.429-3.429 10.857-8.571 11.429-3.429 0.571-9.714-12-10.857-11.429-5.143 2.857-7.429-1.143-11.429-3.429-3.429-2.286-6.286-1.143-9.714-2.857 10.286 3.429-4.571 9.143-9.714 8 8 2.286 4 10.857-0.571 14.857h2.857c-1.143 5.143-17.143 9.714-22.286 13.143s-32.571 9.143-38.286 5.714c-6.857-4 1.714-15.429 1.714-21.143 0.571-6.857-6.857-8.571-6.857-14.286 0-9.714 18.286-8 13.714-21.143-2.857-8-13.714-9.714-18.286-16-4.571-5.714 0.571-16 5.143-20 4.571-3.429-8-9.143-9.714-10.286-9.714-4.571-17.143 9.714-19.429 18.286-1.714 6.286-2.286 13.714-9.143 17.143-3.429 1.143-14.286 2.857-16.571-0.571-3.429 8.571-15.429 12-23.429 14.857-11.429 4-21.143 4-33.143 2.286 4 0.571-1.143 18.286-10.857 15.429 2.857 5.714 1.714 12 2.857 17.714 1.143 4.571 3.429 9.143 6.857 13.143 1.143 2.286 13.714 15.429 9.714 16 9.714-1.143 20.571-1.714 28.571 6.286 5.143 5.143 7.429 13.714 12.571 19.429 7.429 8.571 16.571-2.286 24.571-2.857 11.429-0.571 10.857 12 4.571 17.714 7.429-0.571 1.143 13.143-2.857 14.857-5.143 1.714-24.571-3.429-14.286-7.429-2.286 1.143-16-27.429-24-13.143-2.286 2.857-3.429 14.857-8.571 15.429-4.571 0-7.429-5.143-9.143-8.571 2.857 7.429-16 12.571-20 13.143 8.571 5.714 1.714 12-4.571 15.429-4.571 2.857-18.857 5.143-22.857 0.571-10.857-13.143 11.429-14.857 17.143-18.286 1.714-1.143 8.571-5.143 4.571-8-3.429-1.714-13.714-4.571-14.857-6.857-3.429-5.143 4-10.857-1.143-16-5.143 5.143-5.143 13.714-9.143 19.429 5.143-6.286-20.571-2.857-20-2.857-8.571 0-22.286-5.714-28.571 2.857-1.143 2.286-1.143 15.429 2.286 12.571-5.143 4-8.571 8-12 10.286-18.857-6.286-36.571-14.286-53.714-23.429 2.286-0.571 4-0.571 6.857 0.571 4.571 1.714 8.571 4.571 13.143 6.857 5.714 2.286 17.714 9.143 24 4 0.571 1.143 2.286 2.286 2.857 2.857 4-4.571 8-9.143 11.429-14.286-4.571 2.286-12 1.143-17.143 0.571-4-1.143-10.857-2.286-12.571-6.857 1.714-2.857 4-7.429 2.857-10.286-7.429 5.143-13.143 13.714-23.429 14.857-4.571 0-9.143 0-12.571-0.571-54.857-30.286-101.143-74.286-134.286-126.857 2.286-2.286 4.571-4 6.857-4.571 5.714-1.714 0-18.286 10.857-9.714 3.429-2.857 4-6.857 1.714-10.857 0.571 0.571 23.429-14.286 25.143-15.429 4-3.429 10.286-7.429 12-12 1.143-4-2.286-8.571-5.714-10.286-0.571 1.143-9.143 9.714-10.286 7.429-1.714-2.857 0-18.286 6.286-17.714-9.143-0.571-5.143-36-7.429-42.857 0-0.571 1.143-0.571 1.143-0.571-1.714-6.857 4-33.714 15.429-30.857-7.429-1.714 13.143-28 16-29.714 7.429-5.143 16-8.571 21.143-16 5.714-8 5.714-20 13.714-26.286-2.286-6.857 12-14.857 11.429-24.571-1.143-0.571-1.714-0.571-2.857-1.143 2.857-8 13.714-8 17.714-15.429 2.286-4.571 0-15.429 7.429-13.143 1.143 12.571-7.429 25.143-13.714 35.429-3.429 5.714-6.857 10.857-9.714 16.571-2.857 5.143-3.429 11.429-5.714 17.143 2.286-0.571 14.857-5.143 13.714-6.857-4.571-11.429 18.286-31.429 24.571-38.857 1.714-1.714 14.857-18.857 8-18.857 7.429 0 17.714-11.429 21.143-17.143 5.143-8.571 4-19.429 7.429-28.571 3.429-11.429 19.429-16.571 28.571-21.714 8-4 14.857-9.714 22.857-12.571 12-4.571 14.857-0.571 25.143 1.143 14.857 2.286 16.571-14.286 28.571-20.571 7.429-4 23.429-9.714 31.429-6.286-3.429-1.143 12-24.571 13.143-26.286 5.143-6.857 14.857-10.286 20.571-17.143 1.714 1.143 3.429 2.857 4 5.143-2.286-6.286 8.571-18.286 14.286-17.143 6.286 1.143 8 13.714 8 18.286-11.429-5.714-21.714-1.143-28 10.286-1.143 2.857-10.286 18.857-2.286 18.857 10.857 0 3.429 8.571 2.286 16.571s-9.143 13.143-13.143 20c-3.429-6.857-14.857-5.143-18.286 0.571 0-1.714-1.714-4.571-1.714-6.857-2.857 0-5.714-0.571-8.571 0.571 1.143 6.857 1.714 15.429 3.429 22.857 2.857 10.286 21.714 30.286-2.857 29.143-8.571-0.571-12-4-14.857-11.429-2.857-6.857-1.714-13.143-9.714-16.571-5.143-2.286-22.286-1.143-27.429 1.714-10.857 6.286-18.286 26.286-18.286 37.714-0.571 15.429 7.429 29.143 0 43.429 3.429 2.857 6.857 8.571 10.857 11.429 3.429 2.286 7.429-1.714 9.143 5.143-1.714 1.143-4 3.429-4.571 3.429 8.571-4 24.571 5.714 32 0 4.571-3.429 9.714-4.571 12.571 1.143 0.571 1.714-4 8.571-1.714 13.143 1.714-9.714 8-11.429 16.571-5.143 3.429-3.429 12.571-2.286 18.857-5.714 6.286-4 7.429-10.286 14.857-1.714 4.571-6.857 5.143-6.857 6.857-13.714 1.714-6.286 5.143-22.286 10.857-25.143 12-7.429 9.143 12.571 8 19.429-0.571 0.571-0.571 19.429-1.143 19.429-18.286 4-11.429 18.286-1.143 28 1.714 1.143 14.857 5.714 20.571 10.286 5.143 4.571 11.429 12.571 8.571 20 2.857 0 5.143 2.286 6.286 5.143-1.714 0.571-8.571 6.286-9.714 5.714 4 2.286 3.429 5.714 1.143 9.143 5.714 3.429 2.857 9.714 8.571 12 6.286-8.571 18.857 1.143 12.571 8 5.714 8 18.857 4 22.286 11.429 8.571-2.286 2.286 8.571 6.857 14.857 4 5.143 10.857 5.143 16 8 0-0.571 14.286 8 9.714 8.571 9.714-1.143 29.143 9.143 14.286 17.714 2.286 5.143-5.143 7.429-10.286 8.571 4 1.143 9.143-1.143 12.571 1.143 7.429 5.143 2.286 7.429-4 9.143-8 2.286-18.286-2.857-24.571-6.857zM502.286 78.857c78.286 13.714 148 52.571 200.571 108-3.429 3.429-9.714 2.286-14.286 4.571-4.571 1.714-8 3.429-13.714 4.571 1.143 11.429-11.429 15.429-19.429 21.143-7.429 5.714-12 12-22.857 9.714-1.143-0.571-12.571-4.571-10.286-6.857-7.429 6.286-10.857 9.714-20.571 12.571-9.143 2.857-15.429 14.286-24.571 4-4.571-4.571-2.286-11.429-4.571-16-7.429 6.286 6.857 13.714 1.143 20.571-6.857 8-18.857-5.143-24.571-8.571-3.429-2.857-7.429-4-9.714-7.429-2.857-4-4-9.143-6.286-13.143-1.714 4.571-11.429 3.429-12 6.857 2.286-13.714 2.286-28 5.143-41.714 1.714-8 0-21.143-6.857-27.429s-15.429-13.143-16.571-22.857c-1.143-6.857 0.571-13.143 6.857-14.857 0.571-8.571-9.143-14.857-8.571-24 0-0.571 0.571-6.286 1.143-9.143z" />
<glyph unicode="&#xf0ae;" glyph-name="tasks" d="M585.143 146.286h365.714v73.143h-365.714v-73.143zM365.714 438.857h585.143v73.143h-585.143v-73.143zM731.429 731.428h219.429v73.143h-219.429v-73.143zM1024 256v-146.286c0-20-16.571-36.571-36.571-36.571h-950.857c-20 0-36.571 16.571-36.571 36.571v146.286c0 20 16.571 36.571 36.571 36.571h950.857c20 0 36.571-16.571 36.571-36.571zM1024 548.571v-146.286c0-20-16.571-36.571-36.571-36.571h-950.857c-20 0-36.571 16.571-36.571 36.571v146.286c0 20 16.571 36.571 36.571 36.571h950.857c20 0 36.571-16.571 36.571-36.571zM1024 841.143v-146.286c0-20-16.571-36.571-36.571-36.571h-950.857c-20 0-36.571 16.571-36.571 36.571v146.286c0 20 16.571 36.571 36.571 36.571h950.857c20 0 36.571-16.571 36.571-36.571z" />
<glyph unicode="&#xf0c9;" glyph-name="navi-bar" horiz-adv-x="878" d="M877.714 182.857v-73.143q0-14.857-10.857-25.714t-25.714-10.857h-804.571q-14.857 0-25.714 10.857t-10.857 25.714v73.143q0 14.857 10.857 25.714t25.714 10.857h804.571q14.857 0 25.714-10.857t10.857-25.714zM877.714 475.428v-73.143q0-14.857-10.857-25.714t-25.714-10.857h-804.571q-14.857 0-25.714 10.857t-10.857 25.714v73.143q0 14.857 10.857 25.714t25.714 10.857h804.571q14.857 0 25.714-10.857t10.857-25.714zM877.714 768v-73.143q0-14.857-10.857-25.714t-25.714-10.857h-804.571q-14.857 0-25.714 10.857t-10.857 25.714v73.143q0 14.857 10.857 25.714t25.714 10.857h804.571q14.857 0 25.714-10.857t10.857-25.714z" />
<glyph unicode="&#xf0d7;" glyph-name="caret-down" horiz-adv-x="585" d="M585.143 548.571q0-14.857-10.857-25.714l-256-256q-10.857-10.857-25.714-10.857t-25.714 10.857l-256 256q-10.857 10.857-10.857 25.714t10.857 25.714 25.714 10.857h512q14.857 0 25.714-10.857t10.857-25.714z" />
<glyph unicode="&#xf0d8;" glyph-name="caret-up" horiz-adv-x="585" d="M585.143 256q0-14.857-10.857-25.714t-25.714-10.857h-512q-14.857 0-25.714 10.857t-10.857 25.714 10.857 25.714l256 256q10.857 10.857 25.714 10.857t25.714-10.857l256-256q10.857-10.857 10.857-25.714z" />
<glyph unicode="&#xf0d9;" glyph-name="caret-left" horiz-adv-x="402" d="M365.714 694.857v-512q0-14.857-10.857-25.714t-25.714-10.857-25.714 10.857l-256 256q-10.857 10.857-10.857 25.714t10.857 25.714l256 256q10.857 10.857 25.714 10.857t25.714-10.857 10.857-25.714z" />
<glyph unicode="&#xf0da;" glyph-name="caret-right" horiz-adv-x="329" d="M329.143 438.857q0-14.857-10.857-25.714l-256-256q-10.857-10.857-25.714-10.857t-25.714 10.857-10.857 25.714v512q0 14.857 10.857 25.714t25.714 10.857 25.714-10.857l256-256q10.857-10.857 10.857-25.714z" />
<glyph unicode="&#xf0e0;" glyph-name="envelope2" d="M1024 545.143v-453.714q0-37.714-26.857-64.571t-64.571-26.857h-841.143q-37.714 0-64.571 26.857t-26.857 64.571v453.714q25.143-28 57.714-49.714 206.857-140.571 284-197.143 32.571-24 52.857-37.429t54-27.429 62.857-14h1.143q29.143 0 62.857 14t54 27.429 52.857 37.429q97.143 70.286 284.571 197.143 32.571 22.286 57.143 49.714zM1024 713.143q0-45.143-28-86.286t-69.714-70.286q-214.857-149.143-267.429-185.714-5.714-4-24.286-17.429t-30.857-21.714-29.714-18.571-32.857-15.429-28.571-5.143h-1.143q-13.143 0-28.571 5.143t-32.857 15.429-29.714 18.571-30.857 21.714-24.286 17.429q-52 36.571-149.714 104.286t-117.143 81.429q-35.429 24-66.857 66t-31.429 78q0 44.571 23.714 74.286t67.714 29.714h841.143q37.143 0 64.286-26.857t27.143-64.571z" />
<glyph unicode="&#xf0e1;" glyph-name="envelope" d="M1024 545.143v-453.714q0-37.714-26.857-64.571t-64.571-26.857h-841.143q-37.714 0-64.571 26.857t-26.857 64.571v453.714q25.143-28 57.714-49.714 206.857-140.571 284-197.143 32.571-24 52.857-37.429t54-27.429 62.857-14h1.143q29.143 0 62.857 14t54 27.429 52.857 37.429q97.143 70.286 284.571 197.143 32.571 22.286 57.143 49.714zM1024 713.143q0-45.143-28-86.286t-69.714-70.286q-214.857-149.143-267.429-185.714-5.714-4-24.286-17.429t-30.857-21.714-29.714-18.571-32.857-15.429-28.571-5.143h-1.143q-13.143 0-28.571 5.143t-32.857 15.429-29.714 18.571-30.857 21.714-24.286 17.429q-52 36.571-149.714 104.286t-117.143 81.429q-35.429 24-66.857 66t-31.429 78q0 44.571 23.714 74.286t67.714 29.714h841.143q37.143 0 64.286-26.857t27.143-64.571z" />
<glyph unicode="&#xf0e6;" glyph-name="comments-o" d="M402.286 731.428c-178.286 0-329.143-100.571-329.143-219.429 0-62.857 42.286-123.429 115.429-165.714l55.429-32-20-48c12 6.857 24 14.286 35.429 22.286l25.143 17.714 30.286-5.714c28.571-5.143 57.714-8 87.429-8 178.286 0 329.143 100.571 329.143 219.429s-150.857 219.429-329.143 219.429zM402.286 804.571c222.286 0 402.286-130.857 402.286-292.571s-180-292.571-402.286-292.571c-34.857 0-68.571 3.429-100.571 9.143-47.429-33.714-101.143-58.286-158.857-73.143-15.429-4-32-6.857-49.143-9.143h-1.714c-8.571 0-16.571 6.857-18.286 16.571v0c-2.286 10.857 5.143 17.714 11.429 25.143 22.286 25.143 47.429 47.429 66.857 94.857-92.571 53.714-152 136.571-152 229.143 0 161.714 180 292.571 402.286 292.571zM872 136.571c19.429-47.429 44.571-69.714 66.857-94.857 6.286-7.429 13.714-14.286 11.429-25.143v0c-2.286-10.286-10.857-17.714-20-16.571-17.143 2.286-33.714 5.143-49.143 9.143-57.714 14.857-111.429 39.429-158.857 73.143-32-5.714-65.714-9.143-100.571-9.143-103.429 0-198.286 28.571-269.714 75.429 16.571-1.143 33.714-2.286 50.286-2.286 122.857 0 238.857 35.429 327.429 99.429 95.429 69.714 148 164 148 266.286 0 29.714-4.571 58.857-13.143 86.857 96.571-53.143 159.429-137.714 159.429-233.143 0-93.143-59.429-175.429-152-229.143z" />
<glyph unicode="&#xf0eb;" glyph-name="lightbulb" horiz-adv-x="585" d="M420.571 621.714c0-9.714-8.571-18.286-18.286-18.286s-18.286 8.571-18.286 18.286c0 39.429-61.143 54.857-91.429 54.857-9.714 0-18.286 8.571-18.286 18.286s8.571 18.286 18.286 18.286c53.143 0 128-28 128-91.429zM512 621.714c0 114.286-116 182.857-219.429 182.857s-219.429-68.571-219.429-182.857c0-36.571 14.857-74.857 38.857-102.857 10.857-12.571 23.429-24.571 34.857-37.714 40.571-48.571 74.857-105.714 80.571-170.286h130.286c5.714 64.571 40 121.714 80.571 170.286 11.429 13.143 24 25.143 34.857 37.714 24 28 38.857 66.286 38.857 102.857zM585.143 621.714c0-58.857-19.429-109.714-58.857-153.143s-91.429-104.571-96-165.714c16.571-9.714 26.857-28 26.857-46.857 0-13.714-5.143-26.857-14.286-36.571 9.143-9.714 14.286-22.857 14.286-36.571 0-18.857-9.714-36-25.714-46.286 4.571-8 7.429-17.714 7.429-26.857 0-37.143-29.143-54.857-62.286-54.857-14.857-33.143-48-54.857-84-54.857s-69.143 21.714-84 54.857c-33.143 0-62.286 17.714-62.286 54.857 0 9.143 2.857 18.857 7.429 26.857-16 10.286-25.714 27.429-25.714 46.286 0 13.714 5.143 26.857 14.286 36.571-9.143 9.714-14.286 22.857-14.286 36.571 0 18.857 10.286 37.143 26.857 46.857-4.571 61.143-56.571 122.286-96 165.714s-58.857 94.286-58.857 153.143c0 155.429 148 256 292.571 256s292.571-100.571 292.571-256z" />
<glyph unicode="&#xf104;" glyph-name="angle-left" horiz-adv-x="384" d="M358.286 640q0-7.429-5.714-13.143l-224.571-224.571 224.571-224.571q5.714-5.714 5.714-13.143t-5.714-13.143l-28.571-28.571q-5.714-5.714-13.143-5.714t-13.143 5.714l-266.286 266.286q-5.714 5.714-5.714 13.143t5.714 13.143l266.286 266.286q5.714 5.714 13.143 5.714t13.143-5.714l28.571-28.571q5.714-5.714 5.714-13.143z" />
<glyph unicode="&#xf105;" glyph-name="angle-right" horiz-adv-x="347" d="M340 402.286q0-7.429-5.714-13.143l-266.286-266.286q-5.714-5.714-13.143-5.714t-13.143 5.714l-28.571 28.571q-5.714 5.714-5.714 13.143t5.714 13.143l224.571 224.571-224.571 224.571q-5.714 5.714-5.714 13.143t5.714 13.143l28.571 28.571q5.714 5.714 13.143 5.714t13.143-5.714l266.286-266.286q5.714-5.714 5.714-13.143z" />
<glyph unicode="&#xf106;" glyph-name="angle-up" horiz-adv-x="658" d="M614.286 274.286q0-7.429-5.714-13.143l-28.571-28.571q-5.714-5.714-13.143-5.714t-13.143 5.714l-224.571 224.571-224.571-224.571q-5.714-5.714-13.143-5.714t-13.143 5.714l-28.571 28.571q-5.714 5.714-5.714 13.143t5.714 13.143l266.286 266.286q5.714 5.714 13.143 5.714t13.143-5.714l266.286-266.286q5.714-5.714 5.714-13.143z" />
<glyph unicode="&#xf107;" glyph-name="angle-down" horiz-adv-x="658" d="M614.286 530.286q0-7.429-5.714-13.143l-266.286-266.286q-5.714-5.714-13.143-5.714t-13.143 5.714l-266.286 266.286q-5.714 5.714-5.714 13.143t5.714 13.143l28.571 28.571q5.714 5.714 13.143 5.714t13.143-5.714l224.571-224.571 224.571 224.571q5.714 5.714 13.143 5.714t13.143-5.714l28.571-28.571q5.714-5.714 5.714-13.143z" />
<glyph unicode="&#xf108;" glyph-name="desktop" horiz-adv-x="1097" d="M1024 384v475.429c0 9.714-8.571 18.286-18.286 18.286h-914.286c-9.714 0-18.286-8.571-18.286-18.286v-475.429c0-9.714 8.571-18.286 18.286-18.286h914.286c9.714 0 18.286 8.571 18.286 18.286zM1097.143 859.428v-621.714c0-50.286-41.143-91.429-91.429-91.429h-310.857c0-48.571 36.571-89.714 36.571-109.714s-16.571-36.571-36.571-36.571h-292.571c-20 0-36.571 16.571-36.571 36.571 0 21.143 36.571 60 36.571 109.714h-310.857c-50.286 0-91.429 41.143-91.429 91.429v621.714c0 50.286 41.143 91.429 91.429 91.429h914.286c50.286 0 91.429-41.143 91.429-91.429z" />
<glyph unicode="&#xf10b;" glyph-name="mobile, mobile-phone" horiz-adv-x="439" d="M265.143 146.286c0 25.143-20.571 45.714-45.714 45.714s-45.714-20.571-45.714-45.714 20.571-45.714 45.714-45.714 45.714 20.571 45.714 45.714zM384 237.714v402.286c0 9.714-8.571 18.286-18.286 18.286h-292.571c-9.714 0-18.286-8.571-18.286-18.286v-402.286c0-9.714 8.571-18.286 18.286-18.286h292.571c9.714 0 18.286 8.571 18.286 18.286zM274.286 722.286c0 5.143-4 9.143-9.143 9.143h-91.429c-5.143 0-9.143-4-9.143-9.143s4-9.143 9.143-9.143h91.429c5.143 0 9.143 4 9.143 9.143zM438.857 731.428v-585.143c0-40-33.143-73.143-73.143-73.143h-292.571c-40 0-73.143 33.143-73.143 73.143v585.143c0 40 33.143 73.143 73.143 73.143h292.571c40 0 73.143-33.143 73.143-73.143z" />
<glyph unicode="&#xf110;" glyph-name="spinner" d="M300.571 154.286c0-40-32.571-73.143-73.143-73.143-40 0-73.143 33.143-73.143 73.143 0 40.571 33.143 73.143 73.143 73.143 40.571 0 73.143-32.571 73.143-73.143zM585.143 36.571c0-40.571-32.571-73.143-73.143-73.143s-73.143 32.571-73.143 73.143 32.571 73.143 73.143 73.143 73.143-32.571 73.143-73.143zM182.857 438.857c0-40.571-32.571-73.143-73.143-73.143s-73.143 32.571-73.143 73.143 32.571 73.143 73.143 73.143 73.143-32.571 73.143-73.143zM869.714 154.286c0-40-33.143-73.143-73.143-73.143-40.571 0-73.143 33.143-73.143 73.143 0 40.571 32.571 73.143 73.143 73.143 40 0 73.143-32.571 73.143-73.143zM318.857 723.428c0-50.286-41.143-91.429-91.429-91.429s-91.429 41.143-91.429 91.429 41.143 91.429 91.429 91.429 91.429-41.143 91.429-91.429zM987.429 438.857c0-40.571-32.571-73.143-73.143-73.143s-73.143 32.571-73.143 73.143 32.571 73.143 73.143 73.143 73.143-32.571 73.143-73.143zM621.714 841.143c0-60.571-49.143-109.714-109.714-109.714s-109.714 49.143-109.714 109.714 49.143 109.714 109.714 109.714 109.714-49.143 109.714-109.714zM924.571 723.428c0-70.857-57.714-128-128-128-70.857 0-128 57.143-128 128 0 70.286 57.143 128 128 128 70.286 0 128-57.714 128-128z" />
<glyph unicode="&#xf135;" glyph-name="rocket" horiz-adv-x="967" d="M822.857 694.857c0 30.286-24.571 54.857-54.857 54.857s-54.857-24.571-54.857-54.857 24.571-54.857 54.857-54.857 54.857 24.571 54.857 54.857zM950.857 859.428c0-189.714-52.571-316-188-452-33.143-32.571-70.857-66.286-111.429-100.571l-11.429-216.571c-0.571-5.714-4-11.429-9.143-14.857l-219.429-128c-2.857-1.714-5.714-2.286-9.143-2.286-4.571 0-9.143 1.714-13.143 5.143l-36.571 36.571c-4.571 5.143-6.286 12-4.571 18.286l48.571 157.714-160.571 160.571-157.714-48.571c-1.714-0.571-3.429-0.571-5.143-0.571-4.571 0-9.714 1.714-13.143 5.143l-36.571 36.571c-5.714 6.286-6.857 15.429-2.857 22.286l128 219.429c3.429 5.143 9.143 8.571 14.857 9.143l216.571 11.429c34.286 40.571 68 78.286 100.571 111.429 142.857 142.286 252 188 450.857 188 10.286 0 19.429-8 19.429-18.286z" />
<glyph unicode="&#xf15c;" glyph-name="file-text" horiz-adv-x="878" d="M838.857 678.857q8-8 16-20.571h-269.714v269.714q12.571-8 20.571-16zM566.857 585.143h310.857v-603.429q0-22.857-16-38.857t-38.857-16h-768q-22.857 0-38.857 16t-16 38.857v914.286q0 22.857 16 38.857t38.857 16h457.143v-310.857q0-22.857 16-38.857t38.857-16zM658.286 164.571v36.571q0 8-5.143 13.143t-13.143 5.143h-402.286q-8 0-13.143-5.143t-5.143-13.143v-36.571q0-8 5.143-13.143t13.143-5.143h402.286q8 0 13.143 5.143t5.143 13.143zM658.286 310.857v36.571q0 8-5.143 13.143t-13.143 5.143h-402.286q-8 0-13.143-5.143t-5.143-13.143v-36.571q0-8 5.143-13.143t13.143-5.143h402.286q8 0 13.143 5.143t5.143 13.143zM658.286 457.143v36.571q0 8-5.143 13.143t-13.143 5.143h-402.286q-8 0-13.143-5.143t-5.143-13.143v-36.571q0-8 5.143-13.143t13.143-5.143h402.286q8 0 13.143 5.143t5.143 13.143z" />
<glyph unicode="&#xf164;" glyph-name="thumbs-up" horiz-adv-x="914" d="M146.286 182.857c0 20-16.571 36.571-36.571 36.571-20.571 0-36.571-16.571-36.571-36.571 0-20.571 16-36.571 36.571-36.571 20 0 36.571 16 36.571 36.571zM237.714 475.428v-365.714c0-20-16.571-36.571-36.571-36.571h-164.571c-20 0-36.571 16.571-36.571 36.571v365.714c0 20 16.571 36.571 36.571 36.571h164.571c20 0 36.571-16.571 36.571-36.571zM914.286 475.428c0-30.286-12-62.857-31.429-85.143 6.286-18.286 8.571-35.429 8.571-43.429 1.143-28.571-7.429-55.429-24.571-78.286 6.286-21.143 6.286-44 0-66.857-5.714-21.143-16.571-40-30.857-53.714 3.429-42.857-6.286-77.714-28-103.429-24.571-29.143-62.286-44-112.571-44.571h-73.714c-81.714 0-158.857 26.857-220.571 48-36 12.571-70.286 24.571-90.286 25.143-19.429 0.571-36.571 16.571-36.571 36.571v366.286c0 18.857 16 34.857 34.857 36.571 21.143 1.714 76 69.714 101.143 102.857 20.571 26.286 40 50.857 57.714 68.571 22.286 22.286 28.571 56.571 35.429 89.714 6.286 33.714 13.143 69.143 37.714 93.143 6.857 6.857 16 10.857 25.714 10.857 128 0 128-102.286 128-146.286 0-46.857-16.571-80-32-109.714-6.286-12.571-12-18.286-16.571-36.571h158.286c59.429 0 109.714-50.286 109.714-109.714z" />
</font>
</defs>
</svg>
